<?xml version="1.0" standalone="no"?>
<!DOCTYPE svg PUBLIC "-//W3C//DTD SVG 1.1//EN" "http://www.w3.org/Graphics/SVG/1.1/DTD/svg11.dtd">
<svg xmlns="http://www.w3.org/2000/svg">
<defs >
<font id="AsapCondensed" horiz-adv-x="456" ><font-face
    font-family="Asap Condensed"
    units-per-em="1000"
    panose-1="2 15 8 6 3 2 2 6 2 3"
    ascent="934"
    descent="-212"
    alphabetic="0" />
<glyph unicode=" " glyph-name="space" horiz-adv-x="137" />
<glyph unicode="!" glyph-name="exclam" horiz-adv-x="246" d="M88 222T78 229T67 254V670Q67 702 125 702H171Q198 702 213 695T229 674L178 254Q175 236 166 229T127 222H119Q88 222 78 229ZM47 -2T47 30V122Q47 154 105 154H138Q196 154 196 122V30Q196 -2
138 -2H105Q47 -2 47 30Z" />
<glyph unicode="&quot;" glyph-name="quotedbl" horiz-adv-x="309" d="M310 464T302 471T292 494L270 670Q265 702 330 702H340Q405 702 400 670L378 494Q376 478 368 471T344 464H326Q310 464 302 471ZM205 464T197 471T187 494L165 670Q160 702 225 702H235Q300
702 295 670L273 494Q271 478 263 471T239 464H221Q205 464 197 471Z" />
<glyph unicode="#" glyph-name="numbersign" horiz-adv-x="514" d="M58 -2T59 28Q60 43 66 87T82 183H38Q22 183 15 195T8 233V243Q8 269 15 281T38 293H98L114 403H66Q50 403 43 415T36 453V463Q36 489 43 501T66 513H130L150 654Q156 686 201 686H219Q266 686
263 655L242 513H319L339 654Q345 686 390 686H408Q431 686 442 678T452 655L431 513H476Q492 513 499 501T506 463V453Q506 427 499 415T476 403H415L399 293H452Q468 293 475 281T482 243V233Q482 207 475 195T452 183H383L361 30Q355 -2 310 -2H292Q248 -2 248
26Q249 43 255 86T270 183H195L172 30Q166 -2 122 -2H103Q58 -2 59 28ZM287 293L303 403H227L211 293H287Z" />
<glyph unicode="$" glyph-name="dollar" horiz-adv-x="460" d="M441 123T397 65T266 -5V-56Q266 -81 240 -81H235Q209 -81 209 -56V-8Q157 -6 112 9T47 49Q34 65 34 82Q34 109 49 139T83 170Q89 170 99 165T119 155T134 145Q172 125 209 123V278Q197 284 191 288Q138
319 106 344T49 412T25 516Q25 600 75 650T209 707V743Q209 768 235 768H240Q266 768 266 743V706Q300 702 329 693T374 670Q391 655 391 634Q391 608 379 580T350 551Q344 551 321 560Q286 573 266 575V421L282 412Q333 384 364 361T418 298T441 203Q441 123 397
65ZM175 485T209 457V570Q190 563 183 549T175 520Q175 485 209 457ZM295 152T295 189Q295 218 266 241V135Q295 152 295 189Z" />
<glyph unicode="%" glyph-name="percent" horiz-adv-x="686" d="M109 372T70 409T31 540Q31 634 70 671T167 708Q226 708 265 671T304 540Q304 446 265 409T167 372Q109 372 70 409ZM168 -2T161 3T154 18Q154 25 158 33L437 674Q449 702 478 702H511Q524 702 531
697T538 682Q538 675 534 667L256 26Q243 -2 214 -2H181Q168 -2 161 3ZM187 454T194 473T201 540Q201 584 194 603T167 622Q147 622 140 603T133 540Q133 492 140 473T167 454Q187 454 194 473ZM465 -8T426 29T387 160Q387 254 426 291T523 328Q582 328 621 291T660
160Q660 66 621 29T523 -8Q465 -8 426 29ZM543 74T550 93T557 160Q557 204 550 223T523 242Q503 242 496 223T489 160Q489 112 496 93T523 74Q543 74 550 93Z" />
<glyph unicode="&amp;" glyph-name="ampersand" horiz-adv-x="520" d="M503 113T511 84T520 41Q520 -8 432 -8Q398 -8 377 1T341 32Q296 9 265 1T188 -8Q97 -8 51 47T5 204Q5 273 23 317T93 383V387Q59 405 41 443T23 533Q23 614 67 661T189 708Q225 708 257 697T289
666Q289 632 278 608T255 584Q252 584 241 587T219 591Q198 591 187 569T176 509Q176 472 195 449T243 426H306L318 521Q321 553 372 553H407Q457 553 457 521V426H479Q494 426 501 414T508 376V359Q508 333 501 321T479 309H457V152Q457 127 459 118T473 109Q478
109 483 111T491 113Q503 113 511 84ZM156 156T168 133T213 109Q235 109 255 114T306 133V309H233Q188 309 172 285T156 206Q156 156 168 133Z" />
<glyph unicode="&apos;" glyph-name="quotesingle" horiz-adv-x="164" d="M59 464T51 471T41 494L19 670Q14 702 79 702H89Q154 702 149 670L127 494Q125 478 117 471T93 464H75Q59 464 51 471Z" />
<glyph unicode="(" glyph-name="parenleft" horiz-adv-x="249" d="M184 -208T172 -192Q102 -94 68 29T33 287Q33 423 67 546T172 767Q184 783 199 783Q215 783 235 768T256 737Q256 726 251 717Q193 614 172 512T150 287Q150 163 171 62T251 -142Q256 -151 256
-162Q256 -178 236 -193T199 -208Q184 -208 172 -192Z" />
<glyph unicode=")" glyph-name="parenright" horiz-adv-x="249" d="M34 -208T14 -193T-7 -162Q-7 -151 -2 -142Q55 -39 76 62T98 287Q98 412 77 513T-2 717Q-7 726 -7 737Q-7 753 13 768T50 783Q65 783 77 767Q147 670 181 546T215 287Q215 151 181 28T77 -192Q65
-208 50 -208Q34 -208 14 -193Z" />
<glyph unicode="*" glyph-name="asterisk" horiz-adv-x="299" d="M68 412T57 420T45 438V441Q45 449 54 462L101 532L38 564Q26 570 21 574T16 587Q16 600 23 612T44 624Q54 624 60 621L117 592V678Q117 694 124 701T147 708Q163 708 170 701T177 678V592L233
621Q239 624 249 624Q262 624 270 613T278 587Q278 579 273 575T256 564L192 532L240 462Q249 449 249 438Q248 429 237 421T215 412Q203 414 192 429L147 493L102 429Q92 414 79 412Q68 412 57 420Z" />
<glyph unicode="+" glyph-name="plus" horiz-adv-x="449" d="M190 0T178 7T166 30V182H59Q44 182 37 194T30 232V239Q30 265 37 277T59 289H166V443Q166 459 178 466T216 473H230Q256 473 268 466T280 443V289H391Q406 289 412 277T419 239V232Q419 206 413 194T391
182H280V30Q280 14 268 7T230 0H216Q190 0 178 7Z" />
<glyph unicode="," glyph-name="comma" horiz-adv-x="188" d="M24 -125T10 -120T-4 -103Q-4 -98 -2 -88T2 -70L8 -50Q19 -14 25 22T32 110Q32 154 90 154H110Q140 154 154 142T168 110Q168 57 146 3T92 -88T40 -125Q24 -125 10 -120Z" />
<glyph unicode="-" glyph-name="hyphen" horiz-adv-x="254" d="M29 212T22 224T15 262V269Q15 295 22 307T44 319H210Q225 319 232 307T239 269V262Q239 236 232 224T210 212H44Q29 212 22 224Z" />
<glyph unicode="." glyph-name="period" horiz-adv-x="188" d="M19 -2T19 30V122Q19 154 77 154H110Q168 154 168 122V30Q168 -2 110 -2H77Q19 -2 19 30Z" />
<glyph unicode="/" glyph-name="slash" horiz-adv-x="348" d="M23 -79T12 -74T0 -56Q0 -51 4 -38L226 672Q231 688 246 695T290 702H297Q325 702 336 697T348 679Q348 670 344 658L122 -49Q117 -65 102 -72T58 -79H51Q23 -79 12 -74Z" />
<glyph unicode="0" glyph-name="zero" horiz-adv-x="459" d="M126 -8T76 84T25 350Q25 523 75 615T229 708Q332 708 383 615T434 350Q434 178 383 85T229 -8Q126 -8 76 84ZM248 109T259 128T275 199T281 350Q281 449 276 501T259 572T229 591Q210 591 199 572T183
501T177 350Q177 251 182 199T199 128T229 109Q248 109 259 128Z" />
<glyph unicode="1" glyph-name="one" horiz-adv-x="459" d="M50 0T43 12T36 50V67Q36 93 43 105T66 117H173V566L65 551Q48 551 41 578T33 635Q33 658 59 663L280 704Q293 704 307 697T321 680V117H415Q431 117 438 105T445 67V50Q445 24 438 12T415 0H66Q50 0 43 12Z" />
<glyph unicode="2" glyph-name="two" horiz-adv-x="459" d="M33 0T24 31T15 88Q15 99 18 103L236 420Q257 451 266 474T275 520Q275 555 254 572T196 590Q171 590 150 582T106 559Q87 547 80 547Q58 547 41 571T23 616Q23 658 84 683T219 708Q318 708 371 658T425
525Q425 447 372 372L199 117H400Q416 117 423 105T430 67V50Q430 24 423 12T400 0H43Q33 0 24 31Z" />
<glyph unicode="3" glyph-name="three" horiz-adv-x="459" d="M131 -8T73 12T15 74Q15 84 23 102T42 135T64 150Q69 150 86 140Q109 126 131 118T183 109Q225 109 250 134T275 206Q275 257 249 282T165 308H130Q114 308 107 320T100 358V376Q100 402 107 414T130
426H156Q201 426 226 448T252 509Q252 547 233 568T178 590Q152 590 136 584T105 568T86 559Q71 559 54 586T36 635Q36 670 88 689T214 708Q300 708 351 661T402 533Q402 482 377 444T309 387V383Q367 361 396 314T425 204Q425 104 364 48T196 -8Q131 -8 73 12Z"
/>
<glyph unicode="4" glyph-name="four" horiz-adv-x="459" d="M247 -2T247 30V142H41Q29 142 17 177T4 235Q4 242 6 246L221 678Q228 694 242 698T284 702H335Q395 702 395 670V259H422Q438 259 445 247T452 209V192Q452 166 445 154T422 142H395V30Q395 -2 335
-2H307Q247 -2 247 30ZM246 259V356Q246 417 256 493L252 494L142 259H246Z" />
<glyph unicode="5" glyph-name="five" horiz-adv-x="459" d="M122 -8T72 13T21 64Q21 73 30 92T51 127T75 143Q77 143 96 134T139 117T193 109Q232 109 254 136T277 212Q277 267 254 295T177 323H83Q62 323 54 332T46 363L65 660Q67 681 76 690T107 700H374Q390
700 397 688T404 650V623Q404 602 397 593T374 583H200L190 440H205Q313 440 370 389T427 216Q427 136 394 86T309 14T198 -8Q122 -8 72 13Z" />
<glyph unicode="6" glyph-name="six" horiz-adv-x="459" d="M178 -8T132 18T55 103T25 253Q25 424 93 524T237 664T339 704Q355 704 366 689T383 653T389 621Q389 611 387 607T376 600Q305 577 259 528T193 405Q232 428 274 428Q310 428 348 407T412 339T439 216Q439
139 410 89T333 16T232 -8Q178 -8 132 18ZM261 109T280 138T299 212Q299 257 280 284T226 311Q202 311 177 296Q172 278 172 241Q172 171 189 140T234 109Q261 109 280 138Z" />
<glyph unicode="7" glyph-name="seven" horiz-adv-x="459" d="M60 -2T60 17Q60 22 66 38L276 583H62Q46 583 39 595T32 633V650Q32 676 39 688T62 700H407Q415 700 426 667T437 610Q437 603 435 597L211 18Q207 7 193 3T154 -2H117Q60 -2 60 17Z" />
<glyph unicode="8" glyph-name="eight" horiz-adv-x="459" d="M130 -8T79 50T27 199Q27 264 51 306T115 372Q80 401 60 436T40 524Q40 606 92 657T237 708Q325 708 375 659T425 532Q425 472 403 437T343 379Q387 351 412 308T437 195Q437 142 416 96T350 21T234
-8Q130 -8 79 50ZM292 473T292 527Q292 557 276 574T236 591Q212 591 195 575T177 529Q177 499 194 479T244 440Q292 473 292 527ZM263 109T280 132T297 189Q297 231 275 256T212 305Q189 287 178 263T166 203Q166 155 184 132T233 109Q263 109 280 132Z" />
<glyph unicode="9" glyph-name="nine" horiz-adv-x="459" d="M104 -7T93 8T76 44T70 76Q70 87 72 91T83 97Q153 120 200 169T266 293Q228 269 184 269Q148 269 111 290T47 358T20 481Q20 558 49 608T126 681T226 705Q280 705 327 679T404 594T434 444Q434 273
366 173T222 33T120 -7Q104 -7 93 8ZM255 386T282 401Q283 419 283 456Q283 526 267 557T225 588Q198 588 179 559T160 484Q160 439 179 413T233 386Q255 386 282 401Z" />
<glyph unicode=":" glyph-name="colon" horiz-adv-x="188" d="M19 369T19 401V493Q19 525 77 525H110Q168 525 168 493V401Q168 369 110 369H77Q19 369 19 401ZM19 -2T19 30V122Q19 154 77 154H110Q168 154 168 122V30Q168 -2 110 -2H77Q19 -2 19 30Z" />
<glyph unicode=";" glyph-name="semicolon" horiz-adv-x="188" d="M19 369T19 401V493Q19 525 77 525H110Q168 525 168 493V401Q168 369 110 369H77Q19 369 19 401ZM24 -125T10 -120T-4 -103Q-4 -98 -2 -88T2 -70L8 -50Q19 -14 25 22T32 110Q32 154 90 154H110Q140
154 154 142T168 110Q168 57 146 3T92 -88T40 -125Q24 -125 10 -120Z" />
<glyph unicode="&lt;" glyph-name="less" horiz-adv-x="448" d="M395 11T385 16L51 193Q38 200 33 209T27 236V255Q27 271 32 280T51 297L372 467Q388 475 394 475Q404 475 407 466T410 438V422Q410 394 405 382T385 359L182 245L387 131Q404 120 408 110T412
68V52Q412 30 410 21T399 11Q395 11 385 16Z" />
<glyph unicode="=" glyph-name="equal" horiz-adv-x="449" d="M44 267T37 279T30 317V324Q30 350 37 362T60 374H389Q405 374 412 362T419 324V317Q419 291 412 279T389 267H60Q44 267 37 279ZM44 87T37 99T30 137V144Q30 170 37 182T60 194H389Q405 194 412 182T419
144V137Q419 111 412 99T389 87H60Q44 87 37 99Z" />
<glyph unicode="&gt;" glyph-name="greater" horiz-adv-x="448" d="M32 11T30 20T27 52V68Q27 99 31 109T52 131L257 245L54 359Q39 369 34 381T29 422V438Q29 457 32 466T45 475Q51 475 67 467L388 297Q401 290 406 281T412 255V236Q412 219 407 210T388 193L54
16Q44 11 40 11Q32 11 30 20Z" />
<glyph unicode="?" glyph-name="question" horiz-adv-x="391" d="M121 222T110 228T98 251Q98 293 112 330T155 404L177 430Q205 463 217 483T230 520Q230 576 165 576Q145 576 129 570T98 554T78 545Q65 545 51 560T26 596T15 627Q15 652 41 670T107 698T185
708Q277 708 331 664T386 539Q386 499 375 470T347 421T301 373Q267 341 248 314T223 249Q219 234 207 228T170 222H147Q121 222 110 228ZM85 -2T85 30V122Q85 154 145 154H177Q237 154 237 122V30Q237 -2 177 -2H145Q85 -2 85 30Z" />
<glyph unicode="@" glyph-name="at" horiz-adv-x="792" d="M526 708T591 668T691 554T727 383Q727 294 699 220T622 102T513 58Q476 58 451 74T415 118Q401 91 376 75T320 58Q269 58 239 105T209 239Q209 318 229 379T284 474T365 508Q391 508 412 496T449 466Q455
488 464 495T499 503H511Q558 503 558 479L549 382Q546 346 539 266T532 174Q532 159 539 150T560 141Q587 141 610 174T648 262T663 380Q663 463 635 525T557 620T439 654Q351 654 278 599T162 449T119 237Q119 147 145 78T221 -30T334 -69Q365 -69 386 -64T431
-48Q447 -40 455 -40Q469 -40 469 -73Q469 -99 422 -111T328 -123Q248 -123 186 -77T90 51T55 239Q55 369 106 476T245 646T441 708Q526 708 591 668ZM416 314T429 392Q413 410 395 410Q366 410 350 368T334 247Q334 197 342 178T370 159Q390 159 411 190Q416 314
429 392Z" />
<glyph unicode="A" glyph-name="A" horiz-adv-x="505" d="M2 -2T2 20Q2 28 5 38L159 674Q166 702 220 702H285Q340 702 347 674L501 38Q503 24 503 20Q503 -2 460 -2H407Q359 -2 354 19L328 141H176L149 19Q145 -2 102 -2H50Q2 -2 2 20ZM311 263L266 475Q259 511
254 551H249Q244 511 237 475L193 263H311Z" />
<glyph unicode="B" glyph-name="B" horiz-adv-x="539" d="M75 0T66 9T57 40V661Q57 681 66 690T94 700H273Q483 700 483 531Q483 419 393 366L394 362Q445 347 474 304T503 197Q503 108 446 54T276 0H94Q75 0 66 9ZM274 415Q306 415 321 435T337 500Q337 543 323
561T276 580H205V415H274ZM281 121Q318 121 335 142T353 211Q353 257 336 276T281 296H205V121H281Z" />
<glyph unicode="C" glyph-name="C" horiz-adv-x="459" d="M164 -8T101 78T37 352Q37 532 103 620T309 708Q356 708 396 697Q427 688 427 654Q427 616 414 586T380 563Q348 573 316 573Q256 573 227 518T197 351Q197 239 226 184T321 128Q340 128 353 130T387 139Q390
140 396 140Q416 140 426 115T436 49Q436 34 430 24T407 7Q390 1 362 -3T304 -8Q164 -8 101 78Z" />
<glyph unicode="D" glyph-name="D" horiz-adv-x="575" d="M75 0T66 9T57 40V660Q57 681 66 690T94 700H284Q414 700 475 613T537 350Q537 174 476 87T284 0H94Q75 0 66 9ZM279 131Q332 131 355 180T378 350Q378 470 355 519T279 569H215V131H279Z" />
<glyph unicode="E" glyph-name="E" horiz-adv-x="457" d="M76 0T67 9T58 40V660Q58 681 67 690T95 700H390Q405 700 412 688T419 650V619Q419 593 412 581T390 569H214V424H370Q385 424 392 412T399 374V343Q399 317 392 305T370 293H214V131H391Q406 131 412
119T419 81V50Q419 24 413 12T391 0H95Q76 0 67 9Z" />
<glyph unicode="F" glyph-name="F" horiz-adv-x="423" d="M57 -2T57 30V660Q57 681 66 690T94 700H369Q384 700 391 688T398 650V619Q398 593 391 581T369 569H213V403H360Q375 403 382 391T389 353V322Q389 296 382 284T360 272H213V30Q213 -2 155 -2H115Q57 -2 57 30Z" />
<glyph unicode="G" glyph-name="G" horiz-adv-x="552" d="M484 410T493 401T502 370V72Q502 49 472 31T396 2T310 -8Q170 -8 104 79T37 352Q37 532 104 620T312 708Q357 708 399 698T467 671T493 637Q493 624 483 602T457 564T430 547Q426 547 409 554T371 567T321
573Q257 573 227 519T197 351Q197 229 225 179T310 128Q334 128 351 132V278H300Q285 278 278 290T271 328V360Q271 386 278 398T300 410H465Q484 410 493 401Z" />
<glyph unicode="H" glyph-name="H" horiz-adv-x="601" d="M58 -2T58 30V670Q58 702 116 702H158Q215 702 215 670V423H386V670Q386 702 444 702H485Q543 702 543 670V30Q543 -2 485 -2H444Q386 -2 386 30V291H215V30Q215 -2 158 -2H116Q58 -2 58 30Z" />
<glyph unicode="I" glyph-name="I" horiz-adv-x="262" d="M52 -3T52 30V670Q52 703 110 703H152Q209 703 209 670V30Q209 -3 152 -3H110Q52 -3 52 30Z" />
<glyph unicode="J" glyph-name="J" horiz-adv-x="355" d="M78 -8T43 5T8 38Q8 67 21 98T50 131Q54 131 67 128T97 125Q124 125 135 149T146 227V670Q146 703 203 703H245Q303 703 303 670V202Q303 -8 122 -8Q78 -8 43 5Z" />
<glyph unicode="K" glyph-name="K" horiz-adv-x="510" d="M54 -2T54 30V670Q54 702 112 702H152Q211 702 211 670V372L215 371L350 683Q355 694 367 698T401 702H456Q511 702 511 687Q511 680 505 666L350 357L516 34Q522 23 522 13Q522 -2 470 -2H404Q381 -2
368 2T350 17L214 331L211 330V30Q211 -2 152 -2H112Q54 -2 54 30Z" />
<glyph unicode="L" glyph-name="L" horiz-adv-x="408" d="M75 0T66 9T57 40V670Q57 702 115 702H155Q213 702 213 670V131H362Q378 131 385 119T392 81V50Q392 24 385 12T362 0H94Q75 0 66 9Z" />
<glyph unicode="M" glyph-name="M" horiz-adv-x="689" d="M320 223T311 228T295 247L221 385Q215 396 209 410T200 432L196 431Q202 395 202 376V30Q202 13 189 6T144 -2H110Q79 -2 66 5T52 30V670Q52 687 65 694T110 702H141Q165 702 179 696T201 674L325 439Q335
421 344 391Q351 418 362 439L486 674Q494 689 508 695T546 702H577Q608 702 621 695T635 670V30Q635 13 622 6T577 -2H543Q512 -2 499 5T485 30V376Q485 400 492 431L488 432Q481 413 466 385L392 247Q385 234 376 229T352 223H335Q320 223 311 228Z" />
<glyph unicode="N" glyph-name="N" horiz-adv-x="590" d="M52 -2T52 30V670Q52 702 110 702H136Q156 702 168 697T188 674L368 348Q382 322 402 270L406 272Q398 324 398 351V670Q398 702 456 702H480Q538 702 538 670V30Q538 -2 480 -2H461Q441 -2 428 3T407
26L216 366Q207 381 189 430L184 427Q192 381 192 359V30Q192 -2 134 -2H110Q52 -2 52 30Z" />
<glyph unicode="O" glyph-name="O" horiz-adv-x="599" d="M38 -8T38 350Q38 708 300 708Q428 708 494 621T561 350Q561 166 495 79T300 -8Q38 -8 38 350ZM337 123T359 143T392 212T403 350Q403 437 392 486T359 556T301 576Q265 576 243 556T209 487T197 350Q197
263 208 213T242 143T301 123Q337 123 359 143Z" />
<glyph unicode="P" glyph-name="P" horiz-adv-x="482" d="M55 -2T55 30V660Q55 681 64 690T95 700H268Q347 700 407 655T468 481Q468 393 433 345T355 279T278 262H209V30Q209 -2 149 -2H115Q55 -2 55 30ZM261 391Q284 391 301 411T318 481Q318 530 301 549T261
569H208V391H261Z" />
<glyph unicode="Q" glyph-name="Q" horiz-adv-x="599" d="M513 -159T503 -154T488 -145Q373 -76 183 16Q111 52 75 133T38 350Q38 708 300 708Q428 708 494 621T561 350Q561 100 433 26V22L572 -47Q584 -52 584 -65Q583 -74 572 -97T546 -140T517 -159Q513 -159
503 -154ZM337 121T359 141T392 212T403 350Q403 437 392 486T359 556T301 576Q265 576 243 556T209 487T197 350Q197 262 208 212T242 142T301 121Q337 121 359 141Z" />
<glyph unicode="R" glyph-name="R" horiz-adv-x="513" d="M54 -2T54 30V660Q54 681 63 690T94 700H261Q353 700 409 655T465 503Q465 386 370 334V330Q392 318 410 290T437 230L496 38Q499 26 499 26Q499 -1 437 -1H402Q349 -1 342 26L289 216Q280 238 269 247T232
256H208V30Q208 -2 148 -2H114Q54 -2 54 30ZM264 402Q286 402 301 424T317 488Q317 530 302 549T261 569H208V402H264Z" />
<glyph unicode="S" glyph-name="S" horiz-adv-x="437" d="M157 -8T109 6T39 46Q26 64 26 81Q26 109 41 138T74 167Q82 167 99 157T125 143Q164 123 194 123Q226 123 250 138T274 189Q274 227 251 248T179 296Q104 339 70 385T35 507Q35 568 62 613T136 683T245
708Q279 708 317 698T376 672Q394 659 394 637Q394 611 383 582T354 553Q346 553 325 561Q286 576 260 576Q218 576 203 558T187 517Q187 481 206 463T267 422Q276 418 294 408Q363 368 393 322T424 201Q424 145 400 98T327 21T206 -8Q157 -8 109 6Z" />
<glyph unicode="T" glyph-name="T" horiz-adv-x="454" d="M148 -2T148 30V569H37Q22 569 15 581T8 619V650Q8 676 15 688T37 700H417Q433 700 440 688T447 650V619Q447 593 440 581T417 569H305V30Q305 -2 247 -2H206Q148 -2 148 30Z" />
<glyph unicode="U" glyph-name="U" horiz-adv-x="583" d="M179 -8T115 48T51 205V670Q51 702 109 702H149Q207 702 207 670V215Q207 174 230 149T292 123Q330 123 353 149T377 215V670Q377 702 435 702H474Q532 702 532 670V205Q532 104 469 48T292 -8Q179 -8 115 48Z" />
<glyph unicode="V" glyph-name="V" horiz-adv-x="508" d="M167 -2T162 19L10 662Q6 676 6 680Q6 702 64 702H102Q152 702 157 673L236 261Q241 239 253 142H257Q264 201 274 261L354 673Q359 702 409 702H446Q503 702 503 680Q503 673 500 662L348 19Q343 -2 295
-2H215Q167 -2 162 19Z" />
<glyph unicode="W" glyph-name="W" horiz-adv-x="752" d="M161 -2T150 3T137 19L6 661Q5 665 5 669T6 676Q6 702 65 702H94Q154 702 158 671L205 302Q219 184 221 152H225Q231 205 246 302L307 681Q309 693 319 697T354 702H404Q428 702 438 698T451 681L511 302Q522
235 531 149H535Q538 194 553 302L601 671Q605 702 665 702H688Q747 702 747 676Q747 667 746 661L613 19Q609 -2 566 -2H500Q460 -2 455 19L395 332Q388 365 384 412T378 499H374Q373 458 368 410T356 332L295 19Q291 -2 250 -2H184Q161 -2 150 3Z" />
<glyph unicode="X" glyph-name="X" horiz-adv-x="506" d="M9 -2T9 17Q9 23 17 42L162 365L36 658Q34 662 31 670T27 683Q27 692 42 697T87 702H134Q157 702 171 698T188 683L258 447L334 682Q338 694 351 698T390 702H437Q496 702 496 683Q496 676 488 658L352
363L489 42Q497 24 497 17Q497 -2 438 -2H395Q346 -2 340 17L258 272L168 18Q163 4 152 1T113 -2H68Q9 -2 9 17Z" />
<glyph unicode="Y" glyph-name="Y" horiz-adv-x="484" d="M165 -2T165 30V302L11 657Q9 661 6 669T2 682Q2 691 17 696T62 702H113Q162 702 168 683L246 437L323 683Q326 694 340 698T378 702H420Q483 702 483 682Q483 672 476 657L322 299V30Q322 -2 263 -2H224Q165
-2 165 30Z" />
<glyph unicode="Z" glyph-name="Z" horiz-adv-x="507" d="M49 0T36 33T23 89Q23 97 24 99L278 569H73Q58 569 52 581T45 619V650Q45 676 51 688T73 700H438Q450 700 462 666T475 608Q475 598 472 592L223 131H448Q463 131 470 119T477 81V50Q477 24 470 12T448
0H62Q49 0 36 33Z" />
<glyph unicode="[" glyph-name="bracketleft" horiz-adv-x="239" d="M66 -138T57 -129T48 -98V728Q48 749 57 758T85 768H191Q207 768 213 759T220 728V713Q220 692 214 683T191 673H161V-43H191Q207 -43 213 -52T220 -83V-98Q220 -119 214 -128T191 -138H85Q66
-138 57 -129Z" />
<glyph unicode="\" glyph-name="backslash" horiz-adv-x="348" d="M262 -79T247 -72T226 -49L4 658Q0 670 0 679Q0 691 11 696T51 702H58Q86 702 101 695T122 672L344 -38Q348 -51 348 -56Q348 -68 337 -73T297 -79H290Q262 -79 247 -72Z" />
<glyph unicode="]" glyph-name="bracketright" horiz-adv-x="239" d="M34 -138T27 -129T20 -98V-83Q20 -62 27 -53T49 -43H80V673H49Q34 673 27 682T20 713V728Q20 749 27 758T49 768H155Q174 768 183 759T192 728V-98Q192 -119 183 -128T155 -138H49Q34 -138 27 -129Z" />
<glyph unicode="^" glyph-name="asciicircum" horiz-adv-x="360" d="M19 318T19 333Q19 339 22 348L128 656Q138 686 165 686H196Q223 686 233 656L339 348Q342 339 342 333Q342 318 314 318H289Q250 318 240 348L180 555L120 348Q111 318 73 318H47Q19 318 19 333Z" />
<glyph unicode="_" glyph-name="underscore" horiz-adv-x="427" d="M-2 -138T-9 -126T-16 -88V-81Q-16 -55 -9 -43T13 -31H415Q430 -31 437 -43T444 -81V-88Q444 -114 437 -126T415 -138H13Q-2 -138 -9 -126Z" />
<glyph unicode="`" glyph-name="grave" horiz-adv-x="176" d="M108 572T94 578T66 602L19 665Q9 677 5 685T0 701Q0 711 11 714T51 718Q90 718 107 712T133 687L167 615Q176 594 176 587Q176 580 168 576T135 572Q108 572 94 578Z" />
<glyph unicode="a" glyph-name="a" horiz-adv-x="481" d="M109 -8T74 34T38 149Q38 336 271 335V351Q271 383 257 398T210 414Q188 414 171 409T133 393Q119 385 112 385Q102 385 90 400T69 434T60 465Q60 482 83 497T144 522T221 531Q325 531 372 485T419 358V176Q419
130 421 106T428 53Q431 40 431 31Q431 15 391 7T319 -1Q303 -1 297 11T283 50Q270 28 242 10T175 -8Q109 -8 74 34ZM236 99T249 108T271 132V249Q171 249 171 160Q171 132 184 116T220 99Q236 99 249 108Z" />
<glyph unicode="b" glyph-name="b" horiz-adv-x="482" d="M261 -8T231 11T185 62Q180 38 174 24Q168 8 157 3T122 -2H110Q50 -2 50 30V722Q50 754 110 754H138Q198 754 198 722V501Q232 531 281 531Q360 531 403 461T447 260Q447 133 406 63T295 -8Q261 -8 231
11ZM273 113T285 146T297 261Q297 348 284 381T240 414Q217 414 198 399V147Q219 113 246 113Q273 113 285 146Z" />
<glyph unicode="c" glyph-name="c" horiz-adv-x="408" d="M34 -8T34 260Q34 531 250 531Q286 531 319 522T374 496T395 462Q395 444 380 415T350 386Q344 386 331 394Q313 403 299 408T266 414Q225 414 205 379T185 262Q185 180 204 145T263 109Q281 109 296 114T321
124T334 130Q348 137 352 137Q367 137 381 109T396 61Q396 42 371 26T311 1T246 -8Q34 -8 34 260Z" />
<glyph unicode="d" glyph-name="d" horiz-adv-x="481" d="M141 -8T108 23T55 116T35 264Q35 392 79 461T202 531Q251 531 284 502V722Q284 754 344 754H372Q432 754 432 722V176Q432 130 434 106T441 53Q444 40 444 31Q444 15 404 7T332 -1Q312 -1 305 15T291
62Q276 31 248 12T185 -8Q141 -8 108 23ZM264 113T284 153V400Q264 414 243 414Q213 414 199 379T185 261Q185 183 197 148T235 113Q264 113 284 153Z" />
<glyph unicode="e" glyph-name="e" horiz-adv-x="454" d="M144 -8T89 59T34 258Q34 406 88 468T242 531Q340 531 384 462T428 262Q428 250 408 227T377 203H187Q189 152 210 131T267 109Q289 109 307 115T342 129T363 138Q373 138 385 124T406 91T415 62Q415 39
388 24T325 0T260 -8Q144 -8 89 59ZM293 292Q293 363 281 393T241 424Q214 424 200 395T181 292H293Z" />
<glyph unicode="f" glyph-name="f" horiz-adv-x="286" d="M65 -2T65 30V406H53Q37 406 30 418T23 456V473Q23 499 30 511T53 523H65V598Q65 760 206 760Q238 760 270 748T303 710Q303 704 299 686T288 653T272 638Q269 638 259 640T244 643Q228 643 221 633T213
600V523H246Q262 523 269 511T276 473V456Q276 430 269 418T246 406H213V30Q213 -2 153 -2H125Q65 -2 65 30Z" />
<glyph unicode="g" glyph-name="g" horiz-adv-x="471" d="M133 -212T84 -179T35 -79Q35 2 111 39V42Q91 54 81 73T70 118Q70 174 118 211Q46 253 46 352Q46 442 95 486T228 531Q259 531 293 523H423Q437 523 443 512T450 478V462Q450 440 445 430T427 419Q409
419 393 423L391 419Q399 407 403 389T408 349Q408 272 364 231T245 187Q195 186 195 148Q195 125 214 116T277 98Q303 93 312 91Q369 78 402 48T436 -45Q436 -123 380 -167T226 -212Q133 -212 84 -179ZM252 284T267 300T283 358Q283 400 268 416T226 433Q170 433
170 358Q170 284 226 284Q252 284 267 300ZM276 -106T294 -93T313 -54Q313 -35 300 -25T267 -9T199 3Q182 -7 172 -22T162 -56Q162 -81 182 -93T239 -106Q276 -106 294 -93Z" />
<glyph unicode="h" glyph-name="h" horiz-adv-x="485" d="M51 -2T51 30V722Q51 754 109 754H143Q201 754 201 722V463Q223 493 254 512T326 531Q381 531 410 496T439 392V30Q439 -2 381 -2H347Q289 -2 289 30V358Q289 384 280 396T250 409Q222 409 201 377V30Q201
-2 143 -2H109Q51 -2 51 30Z" />
<glyph unicode="i" glyph-name="i" horiz-adv-x="254" d="M53 -2T53 30V493Q53 525 113 525H141Q201 525 201 493V30Q201 -2 141 -2H113Q53 -2 53 30ZM54 574T54 606V684Q54 716 128 716Q202 716 202 684V606Q202 574 128 574Q54 574 54 606Z" />
<glyph unicode="j" glyph-name="j" horiz-adv-x="249" d="M17 -212T-7 -201T-32 -161Q-32 -139 -24 -115T-1 -91Q4 -91 13 -93T29 -95Q42 -95 47 -85T53 -52V493Q53 525 113 525H141Q201 525 201 493V-50Q201 -129 164 -170T67 -212Q17 -212 -7 -201ZM54 574T54
606V684Q54 716 128 716Q202 716 202 684V606Q202 574 128 574Q54 574 54 606Z" />
<glyph unicode="k" glyph-name="k" horiz-adv-x="452" d="M447 21T447 14Q447 -2 395 -2H339Q320 -2 313 2T300 17L211 246H200V30Q200 -2 142 -2H110Q52 -2 52 30V722Q52 754 110 754H142Q200 754 200 722V306H205L290 506Q296 519 302 522T329 525H381Q435 525
435 508Q435 502 428 487L334 274L441 34Q447 21 447 14Z" />
<glyph unicode="l" glyph-name="l" horiz-adv-x="270" d="M50 -8T50 144V722Q50 754 110 754H138Q198 754 198 722V142Q198 125 203 117T222 109Q226 109 233 111T244 113Q257 113 265 87T273 39Q273 15 244 4T179 -8Q50 -8 50 144Z" />
<glyph unicode="m" glyph-name="m" horiz-adv-x="720" d="M615 531T643 496T671 392V30Q671 -2 613 -2H579Q521 -2 521 30V358Q521 384 513 396T484 409Q458 409 435 382V30Q435 -2 377 -2H343Q285 -2 285 30V358Q285 384 277 396T248 409Q222 409 199 377V30Q199
14 185 6T142 -2H107Q50 -2 50 30V349Q50 420 45 450T40 487Q40 505 82 513T155 522Q174 522 180 511T188 483T193 455Q216 488 248 509T324 531Q403 531 425 461Q447 491 481 511T560 531Q615 531 643 496Z" />
<glyph unicode="n" glyph-name="n" horiz-adv-x="482" d="M50 -2T50 30V349Q50 420 45 450T40 487Q40 505 82 513T155 522Q174 522 180 511T188 483T193 455Q215 488 248 509T324 531Q379 531 407 496T436 392V30Q436 -2 378 -2H344Q286 -2 286 30V358Q286 384
278 396T249 409Q222 409 199 377V30Q199 14 185 6T142 -2H107Q50 -2 50 30Z" />
<glyph unicode="o" glyph-name="o" horiz-adv-x="477" d="M138 -8T86 61T34 262Q34 393 85 462T238 531Q339 531 391 462T443 262Q443 131 391 62T238 -8Q138 -8 86 61ZM268 109T280 143T293 262Q293 346 281 380T239 414Q209 414 197 380T184 262Q184 178 196
144T239 109Q268 109 280 143Z" />
<glyph unicode="p" glyph-name="p" horiz-adv-x="484" d="M52 -206T52 -174V347Q52 393 50 416T43 469Q40 483 40 490Q40 506 80 514T152 522Q172 522 179 506T193 461Q208 492 236 511T299 531Q343 531 376 500T429 407T449 259Q449 131 405 62T282 -8Q233 -8
200 21V-174Q200 -206 140 -206H112Q52 -206 52 -174ZM271 109T285 144T299 262Q299 340 287 375T249 410Q220 410 200 370V123Q220 109 241 109Q271 109 285 144Z" />
<glyph unicode="q" glyph-name="q" horiz-adv-x="481" d="M286 -206T286 -174V22Q252 -8 204 -8Q123 -8 79 62T35 263Q35 390 77 460T189 531Q224 531 254 512T299 461L308 499Q312 514 324 519T362 525H374Q434 525 434 493V-174Q434 -206 374 -206H346Q286 -206
286 -174ZM267 109T286 124V376Q265 410 238 410Q210 410 198 377T185 262Q185 175 199 142T244 109Q267 109 286 124Z" />
<glyph unicode="r" glyph-name="r" horiz-adv-x="337" d="M55 -2T55 30V349Q55 393 53 416T46 469Q43 483 43 490Q43 506 83 514T155 522Q173 522 180 508T190 478T195 455Q209 490 228 510T280 531Q308 531 317 519T327 477Q327 455 320 421T301 387Q295 387
280 391T254 395Q235 395 222 381T203 345V30Q203 -2 143 -2H115Q55 -2 55 30Z" />
<glyph unicode="s" glyph-name="s" horiz-adv-x="353" d="M110 -8T66 10T21 57Q21 78 40 109T75 140Q79 140 92 132T118 119T146 113Q170 113 183 123T196 150Q196 170 183 182T142 209L122 221Q79 247 54 278T28 370Q28 445 73 488T193 531Q239 531 281 517T323
473Q323 453 309 423T282 392Q279 392 259 401T218 410Q168 410 168 376Q168 359 180 349T220 322Q233 316 252 304Q291 279 313 247T336 161Q336 86 290 39T162 -8Q110 -8 66 10Z" />
<glyph unicode="t" glyph-name="t" horiz-adv-x="298" d="M123 -8T91 30T58 148V406H47Q31 406 24 418T17 456V473Q17 499 24 511T47 523H58L71 618Q76 650 125 650H156Q206 650 206 618V523H243Q259 523 266 511T273 473V456Q273 430 266 418T243 406H206V144Q206
126 211 118T230 109Q235 109 243 111T257 113Q269 113 278 85T287 42Q287 17 253 5T183 -8Q123 -8 91 30Z" />
<glyph unicode="u" glyph-name="u" horiz-adv-x="482" d="M105 -9T76 26T46 130V493Q46 525 104 525H138Q196 525 196 493V163Q196 138 204 126T233 113Q260 113 283 145V493Q283 509 297 517T340 525H375Q432 525 432 493V174Q432 103 437 72T442 34Q442 16 400
8T327 0Q308 0 302 11T294 39T289 67Q267 34 236 13T163 -9Q105 -9 76 26Z" />
<glyph unicode="v" glyph-name="v" horiz-adv-x="412" d="M131 -2T126 19L7 485Q5 492 5 503Q5 525 57 525H101Q150 525 154 504L189 282Q198 226 206 138H210Q216 208 227 282L262 504Q266 525 315 525H355Q407 525 407 503Q407 492 405 485L286 19Q281 -2 234
-2H178Q131 -2 126 19Z" />
<glyph unicode="w" glyph-name="w" horiz-adv-x="616" d="M142 -2T133 3T121 19L15 484Q14 490 14 499Q14 525 75 525Q146 525 147 504L173 257L183 146H187Q193 204 203 262L245 504Q246 514 260 519T297 525H323Q344 525 359 520T375 504L417 260Q424 221 432
146H436Q438 160 439 175T441 202L446 257L473 504Q476 525 540 525Q601 525 601 499Q601 490 600 484L496 19Q493 -2 455 -2H423Q401 -2 392 3T381 19L318 282Q315 307 314 321Q312 351 310 359H306Q303 334 302 321Q300 290 298 282L236 19Q234 8 225 3T195 -2H162Q142
-2 133 3Z" />
<glyph unicode="x" glyph-name="x" horiz-adv-x="404" d="M0 0T0 16Q0 21 9 41L128 265L15 481Q6 499 6 507Q6 515 21 520T65 525H102Q128 525 141 522T158 506L194 377L203 342Q212 378 212 378L249 506Q253 519 266 522T305 525H341Q370 525 385 520T400 507Q400
499 391 481L276 265L393 41Q403 23 403 16Q403 0 366 0H304Q275 0 264 2T249 17L210 157L201 189L193 157L152 17Q148 4 137 2T98 0H27Q0 0 0 16Z" />
<glyph unicode="y" glyph-name="y" horiz-adv-x="408" d="M404 525T404 503Q404 499 402 485L232 -185Q227 -206 177 -206H157Q101 -206 101 -185Q101 -178 104 -167L147 -11L10 480Q6 492 6 502Q6 525 56 525H99Q122 525 134 521T150 502L187 299Q193 263 203
187H207Q212 222 214 232Q220 280 224 299L264 504Q268 525 317 525H346Q404 525 404 503Z" />
<glyph unicode="z" glyph-name="z" horiz-adv-x="405" d="M42 0T33 27T24 76Q24 84 26 90L196 406H64Q49 406 42 418T35 456V473Q35 499 42 511T64 523H349Q356 523 366 495T376 446Q376 437 373 431L203 117H352Q367 117 374 105T381 67V50Q381 24 374 12T352
0H51Q42 0 33 27Z" />
<glyph unicode="{" glyph-name="braceleft" horiz-adv-x="249" d="M132 -138T105 -106T77 -22V163Q77 205 69 227T41 259Q26 268 19 279T12 309V321Q12 340 19 351T41 371Q60 381 68 403T77 467V652Q77 703 104 735T176 768H215Q231 768 238 759T245 728V714Q245
675 219 674H221Q205 674 199 666T192 638V451Q192 401 178 366T135 315Q163 299 177 264T192 179V-8Q192 -44 216 -44H217Q231 -45 238 -54T245 -84V-98Q245 -119 238 -128T215 -138H176Q132 -138 105 -106Z" />
<glyph unicode="|" glyph-name="bar" horiz-adv-x="200" d="M66 -138T54 -131T41 -108V738Q41 754 53 761T94 768H108Q136 768 148 761T161 738V-108Q161 -124 149 -131T108 -138H94Q66 -138 54 -131Z" />
<glyph unicode="}" glyph-name="braceright" horiz-adv-x="249" d="M27 -138T20 -129T13 -98V-84Q13 -64 20 -55T41 -44H42Q66 -44 66 -8V179Q66 229 80 264T123 315Q95 331 81 366T66 451V638Q66 658 60 666T38 674H39Q13 675 13 714V728Q13 749 20 758T43 768H82Q126
768 153 736T181 652V467Q181 425 189 403T217 371Q232 362 239 351T246 321V309Q246 290 239 279T217 259Q197 249 189 227T181 163V-22Q181 -73 154 -105T82 -138H43Q27 -138 20 -129Z" />
<glyph unicode="~" glyph-name="asciitilde" horiz-adv-x="438" d="M67 207T54 214T40 230V234Q40 245 42 249Q54 286 80 308T145 331Q168 331 210 319Q234 312 251 309T289 305Q308 305 319 311T343 329T360 340Q369 340 383 332T398 315Q398 306 393 291Q369
217 290 217Q268 217 249 221T203 232Q165 243 147 243Q120 243 93 218Q80 207 75 207Q67 207 54 214Z" />
<glyph unicode="&#xa0;" glyph-name="uni00A0" horiz-adv-x="137" />
<glyph unicode="&#xa1;" glyph-name="exclamdown" horiz-adv-x="246" d="M55 369T55 401V493Q55 525 113 525H146Q204 525 204 493V401Q204 369 146 369H113Q55 369 55 401ZM52 -180T37 -173T21 -152Q21 -138 63 193L73 268Q76 286 84 293T123 300H132Q162 300
172 293T183 268V-148Q183 -180 125 -180H79Q52 -180 37 -173Z" />
<glyph unicode="&#xa2;" glyph-name="cent" horiz-adv-x="420" d="M392 41T365 25T300 -1V-56Q300 -81 274 -81H269Q243 -81 243 -56V-8H242Q30 -8 30 260Q30 530 243 531V562Q243 587 269 587H274Q300 587 300 562V525Q339 517 365 500T391 462Q391 444 376 415T346
386Q340 386 327 394Q312 403 300 407V117Q312 121 330 130Q344 137 348 137Q363 137 377 109T392 61Q392 41 365 25ZM181 188T196 153T243 111V412Q212 405 197 370T181 262Q181 188 196 153Z" />
<glyph unicode="&#xa3;" glyph-name="sterling" horiz-adv-x="470" d="M49 0T40 9T30 40V59Q30 71 37 79T61 101Q83 119 94 134T106 175V311H73Q57 311 50 323T43 361V378Q43 404 50 416T73 428H106V502Q106 708 307 708Q344 708 375 698T406 663Q406 637 393
613T366 588Q364 588 346 592T313 596Q282 596 267 575T251 507V428H319Q335 428 342 416T349 378V361Q349 335 342 323T319 311H251V251Q251 158 210 117H387Q403 117 410 105T417 67V50Q417 24 410 12T387 0H70Q49 0 40 9Z" />
<glyph unicode="&#xa4;" glyph-name="currency" horiz-adv-x="470" d="M93 72T81 84L51 114Q39 126 39 139Q39 152 51 164L78 191Q57 239 57 289Q57 344 80 390L48 422Q36 434 36 447Q36 460 48 472L78 502Q90 514 103 514Q116 514 128 502L154 476Q192 500 234
500Q278 500 317 475L343 502Q355 514 368 514Q381 514 393 502L423 472Q435 460 435 447Q435 434 423 422L389 388Q411 341 411 289Q411 242 391 194L420 164Q432 152 432 139Q432 126 420 114L390 84Q378 72 365 72Q352 72 340 84L320 105Q281 78 234 78Q189
78 150 103L131 84Q119 72 106 72Q93 72 81 84ZM261 192T278 217T296 289Q296 336 279 361T234 386Q206 386 189 361T171 289Q171 242 188 217T234 192Q261 192 278 217Z" />
<glyph unicode="&#xa5;" glyph-name="yen" horiz-adv-x="490" d="M486 672T479 657L356 370H416Q431 370 438 363T445 340V325Q445 294 416 294H325V239H416Q431 239 438 232T445 209V194Q445 178 438 171T416 164H325V30Q325 -2 266 -2H227Q168 -2 168 30V164H63Q48
164 41 171T34 194V209Q34 225 41 232T63 239H168V295H63Q48 295 41 302T34 325V340Q34 356 41 363T63 370H139L14 657Q12 661 9 669T5 682Q5 691 20 696T65 702H116Q165 702 171 683L249 437L326 683Q329 694 343 698T381 702H423Q486 702 486 682Q486 672 479
657Z" />
<glyph unicode="&#xa6;" glyph-name="brokenbar" horiz-adv-x="200" d="M41 380T41 412V738Q41 770 94 770H108Q136 770 148 762T161 738V412Q161 396 149 388T108 380H94Q41 380 41 412ZM41 -140T41 -108V218Q41 250 94 250H108Q136 250 148 242T161 218V-108Q161
-124 149 -132T108 -140H94Q41 -140 41 -108Z" />
<glyph unicode="&#xa7;" glyph-name="section" horiz-adv-x="355" d="M115 -8T71 8T27 55Q27 74 45 105T76 137Q80 137 99 125T140 113Q180 113 180 141Q180 156 168 165T129 188L111 197Q68 220 42 255T15 349Q15 420 63 462Q26 501 26 559Q26 628 71 667T192
707Q235 707 278 693T321 647Q321 630 307 599T280 568Q277 568 258 577T217 587Q197 587 186 580T175 560Q175 545 187 536T216 519T240 507Q284 484 312 450T340 356Q340 321 328 291T292 241Q329 202 329 145Q329 77 284 35T160 -8Q115 -8 71 8ZM217 319T217
338Q217 362 201 374T154 398Q139 386 139 364Q139 340 155 328T202 304Q217 319 217 338Z" />
<glyph unicode="&#xa8;" glyph-name="dieresis" horiz-adv-x="300" d="M29 581T15 588T0 613V677Q0 694 14 701T62 709Q95 709 109 702T124 677V613Q124 596 110 589T62 581Q29 581 15 588ZM205 581T191 588T176 613V677Q176 694 190 701T238 709Q271 709 285
702T300 677V613Q300 596 286 589T238 581Q205 581 191 588Z" />
<glyph unicode="&#xa9;" glyph-name="copyright" horiz-adv-x="592" d="M215 -8T151 32T48 154T10 350Q10 465 48 546T150 667T296 708Q377 708 441 668T543 546T581 350Q581 235 544 154T442 33T296 -8Q215 -8 151 32ZM358 56T407 88T486 186T515 350Q515 447
486 513T408 612T296 644Q234 644 184 612T105 514T76 350Q76 253 105 187T184 88T296 56Q358 56 407 88ZM231 152T196 201T161 353Q161 552 306 552Q337 552 369 541T401 513Q401 500 388 480T365 460Q363 460 349 469T304 478Q248 478 248 353Q248 225 304 225Q332
225 350 236T371 248Q384 248 394 229T404 199Q404 184 386 173T343 157T304 152Q231 152 196 201Z" />
<glyph unicode="&#xaa;" glyph-name="ordfeminine" horiz-adv-x="281" d="M57 439T37 460T17 517Q17 605 154 605V607Q154 630 123 630Q100 630 79 623T55 616Q46 616 37 639T28 675Q28 689 57 699T128 709Q188 709 218 683T248 614V531Q248 495 251 479T254 460Q254
451 228 447T180 443Q171 443 168 448T160 466Q152 456 135 448T92 439Q57 439 37 460ZM145 503T154 519V552Q108 552 108 524Q108 503 128 503Q145 503 154 519Z" />
<glyph unicode="&#xab;" glyph-name="guillemotleft" horiz-adv-x="405" d="M143 47T134 61L32 214Q17 235 17 258Q17 281 32 302L134 455Q143 469 157 469Q173 469 194 456T215 426Q215 417 207 404L116 258L207 112Q215 99 215 89Q215 74 195 61T157 47Q143
47 134 61ZM314 47T305 61L204 214Q196 226 193 235T189 258Q189 271 192 280T204 302L305 455Q314 469 329 469Q345 469 366 456T387 426Q387 417 379 404L289 258L379 112Q387 99 387 89Q387 74 367 61T329 47Q314 47 305 61Z" />
<glyph unicode="&#xac;" glyph-name="logicalnot" horiz-adv-x="449" d="M314 72T314 104V242H50Q34 242 27 254T20 292V299Q20 325 27 337T50 349H389Q410 349 419 340T429 309V104Q429 72 379 72H364Q314 72 314 104Z" />
<glyph unicode="&#xad;" glyph-name="uni00AD" horiz-adv-x="254" d="M29 212T22 224T15 262V269Q15 295 22 307T44 319H210Q225 319 232 307T239 269V262Q239 236 232 224T210 212H44Q29 212 22 224Z" />
<glyph unicode="&#xae;" glyph-name="registered" horiz-adv-x="591" d="M215 -8T151 32T48 154T10 350Q10 465 48 546T150 667T296 708Q377 708 441 668T543 546T581 350Q581 235 544 154T442 33T296 -8Q215 -8 151 32ZM358 56T407 88T486 186T515 350Q515 447
486 513T408 612T296 644Q234 644 184 612T105 514T76 350Q76 253 105 187T184 88T296 56Q358 56 407 88ZM188 156T188 174V526Q188 548 208 548H300Q358 548 384 522T410 443Q410 412 396 389T358 354V350Q364 344 373 331T387 302L426 178Q428 168 428 167Q428
156 398 156H371Q345 156 341 168L305 277Q300 298 296 304T276 310H274V174Q274 156 242 156H220Q188 156 188 174ZM304 384Q311 384 317 398T323 432Q323 452 317 463T301 475H274V384H304Z" />
<glyph unicode="&#xaf;" glyph-name="overscore" horiz-adv-x="289" d="M14 597T7 606T0 637V652Q0 673 7 682T29 692H260Q276 692 282 683T289 652V637Q289 616 283 607T260 597H29Q14 597 7 606Z" />
<glyph unicode="&#xb0;" glyph-name="degree" horiz-adv-x="276" d="M90 443T61 476T31 575Q31 641 60 674T137 708Q184 708 213 675T243 575Q243 509 214 476T137 443Q90 443 61 476ZM154 505T165 522T177 575Q177 610 166 628T136 646Q118 646 107 628T95 575Q95
540 106 523T136 505Q154 505 165 522Z" />
<glyph unicode="&#xb1;" glyph-name="plusminus" horiz-adv-x="449" d="M190 140T178 147T166 170V312H60Q44 312 37 324T30 362V369Q30 395 37 407T60 419H166V573Q166 589 178 596T216 603H230Q256 603 268 596T280 573V419H389Q405 419 412 407T419 369V362Q419
336 412 324T389 312H280V170Q280 154 268 147T230 140H216Q190 140 178 147ZM44 0T37 12T30 50V57Q30 83 37 95T60 107H389Q405 107 412 95T419 57V50Q419 24 412 12T389 0H60Q44 0 37 12Z" />
<glyph unicode="&#xb2;" glyph-name="uni00B2" horiz-adv-x="280" d="M28 350T23 366T17 397Q17 406 23 415L142 588Q169 627 169 655Q169 675 157 685T123 696Q109 696 97 691T73 678T56 670Q43 670 33 684T22 711Q22 735 57 749T137 764Q195 764 226 735T257
658Q257 633 248 608T217 552L123 418H243Q252 418 256 412T260 389V379Q260 350 243 350H36Q28 350 23 366Z" />
<glyph unicode="&#xb3;" glyph-name="uni00B3" horiz-adv-x="280" d="M92 343T58 355T24 391Q24 402 33 419T53 436Q56 436 76 424T122 412Q147 412 161 427T176 469Q176 499 161 514T112 529H91Q74 529 74 558V569Q74 598 91 598H107Q133 598 148 611T163 647Q163
669 152 681T119 694Q97 694 83 685T65 676Q57 676 47 692T36 721Q36 742 66 753T141 764Q191 764 221 736T251 661Q251 631 237 609T196 575V573Q230 560 247 533T264 468Q264 409 229 376T130 343Q92 343 58 355Z" />
<glyph unicode="&#xb4;" glyph-name="acute" horiz-adv-x="176" d="M17 572T9 576T0 587Q0 594 9 615L43 687Q52 705 69 711T125 718Q154 718 165 715T176 701Q176 693 172 685T157 665L110 602Q96 585 82 579T41 572Q17 572 9 576Z" />
<glyph unicode="&#xb5;" glyph-name="uni00B5" horiz-adv-x="453" d="M403 100T410 53Q412 35 412 31Q412 15 369 7T294 -1Q278 -1 272 12T264 43T260 68Q249 43 226 23T171 -5Q184 -71 184 -174Q184 -206 127 -206H92Q34 -206 34 -174V493Q34 525 92 525H127Q184
525 184 493V176Q184 143 189 129T212 114Q232 114 242 132T253 172V493Q253 525 311 525H345Q403 525 403 493V176Q403 100 410 53Z" />
<glyph unicode="&#xb6;" glyph-name="paragraph" horiz-adv-x="466" d="M216 -171T209 -164T202 -141V213Q125 224 77 286T29 456Q29 577 84 638T227 700H425Q441 700 448 693T455 668V667Q455 652 448 645T425 638H404V-141Q404 -156 397 -163T374 -171H372Q356
-171 349 -164T342 -141V638H264V-141Q264 -156 257 -163T234 -171H232Q216 -171 209 -164Z" />
<glyph unicode="&#xb7;" glyph-name="middot" horiz-adv-x="214" d="M78 290T58 310T38 359Q38 388 58 408T107 428Q136 428 156 408T176 359Q176 330 156 310T107 290Q78 290 58 310Z" />
<glyph unicode="&#xb8;" glyph-name="cedilla" horiz-adv-x="207" d="M173 -57T190 -75T207 -120Q207 -165 177 -188T88 -212Q56 -212 28 -201T0 -171Q0 -155 10 -145T28 -134Q36 -134 48 -139Q51 -140 63 -143T91 -147Q125 -147 125 -121Q125 -109 116 -103T92
-91Q90 -90 84 -87T74 -82T71 -75Q71 -67 96 10H160L143 -52Q173 -57 190 -75Z" />
<glyph unicode="&#xb9;" glyph-name="uni00B9" horiz-adv-x="280" d="M104 349T104 368V683L39 671Q28 671 24 687T20 721Q20 735 34 738L171 763Q176 763 184 759T192 749V368Q192 358 185 354T158 349H139Q104 349 104 368Z" />
<glyph unicode="&#xba;" glyph-name="ordmasculine" horiz-adv-x="292" d="M91 439T62 474T33 574Q33 639 62 674T146 709Q201 709 230 674T259 574Q259 509 230 474T146 439Q91 439 62 474ZM165 505T173 521T181 574Q181 611 173 627T147 643Q127 643 119 627T111
574Q111 537 119 521T147 505Q165 505 173 521Z" />
<glyph unicode="&#xbb;" glyph-name="guillemotright" horiz-adv-x="405" d="M66 47T45 60T24 89Q24 99 32 112L122 258L32 404Q24 417 24 426Q24 442 45 455T82 469Q97 469 106 455L207 302Q215 290 218 281T222 258Q222 245 219 236T207 214L106 61Q97 47 82
47Q66 47 45 60ZM238 47T217 60T196 89Q196 99 204 112L296 258L204 404Q196 417 196 426Q196 442 217 455T254 469Q269 469 277 455L379 302Q394 281 394 258Q394 235 379 214L277 61Q269 47 254 47Q238 47 217 60Z" />
<glyph unicode="&#xbc;" glyph-name="onequarter" horiz-adv-x="675" d="M350 289T350 308V623L285 611Q274 611 270 627T266 661Q266 675 280 678L417 703Q422 703 430 699T438 689V308Q438 298 431 294T404 289H385Q350 289 350 308ZM535 -11T535 8V73H414Q406
73 398 92T390 125Q390 131 393 137L517 387Q522 396 531 398T557 401H587Q622 401 622 382V142H638Q647 142 651 135T655 112V102Q655 73 638 73H622V8Q622 -2 614 -6T587 -11H571Q535 -11 535 8ZM537 142V198Q537 229 539 250T546 298L542 299L468 142H537ZM154
0T154 11Q154 18 160 30L425 674Q436 700 467 700H483Q503 700 503 689Q503 683 499 674L232 27Q221 0 190 0H174Q154 0 154 11Z" />
<glyph unicode="&#xbd;" glyph-name="onehalf" horiz-adv-x="675" d="M350 289T350 308V623L285 611Q274 611 270 627T266 661Q266 675 280 678L417 703Q422 703 430 699T438 689V308Q438 298 431 294T404 289H385Q350 289 350 308ZM431 0T426 16T420 47Q420 56
426 65L545 238Q572 277 572 305Q572 325 560 335T526 346Q512 346 500 341T476 328T459 320Q446 320 436 334T425 361Q425 385 460 399T540 414Q598 414 629 385T660 308Q660 283 651 258T620 202L526 68H646Q655 68 659 62T663 39V29Q663 0 646 0H439Q431 0 426
16ZM141 0T141 11Q141 18 147 30L412 674Q423 700 454 700H470Q490 700 490 689Q490 683 486 674L219 27Q208 0 177 0H161Q141 0 141 11Z" />
<glyph unicode="&#xbe;" glyph-name="threequarters" horiz-adv-x="675" d="M337 283T303 295T269 331Q269 342 278 359T298 376Q301 376 321 364T367 352Q392 352 406 367T421 409Q421 439 406 454T357 469H336Q319 469 319 498V509Q319 538 336 538H352Q378
538 393 551T408 587Q408 609 397 621T364 634Q342 634 328 625T310 616Q302 616 292 632T281 661Q281 682 311 693T386 704Q436 704 466 676T496 601Q496 571 482 549T441 515V513Q475 500 492 473T509 408Q509 349 474 316T375 283Q337 283 303 295ZM535 -11T535
8V73H414Q406 73 398 92T390 125Q390 131 393 137L517 387Q522 396 531 398T557 401H587Q622 401 622 382V142H638Q647 142 651 135T655 112V102Q655 73 638 73H622V8Q622 -2 614 -6T587 -11H571Q535 -11 535 8ZM537 142V198Q537 229 539 250T546 298L542 299L468
142H537ZM176 0T176 11Q176 18 182 30L447 674Q458 700 489 700H505Q525 700 525 689Q525 683 521 674L254 27Q243 0 212 0H196Q176 0 176 11Z" />
<glyph unicode="&#xbf;" glyph-name="questiondown" horiz-adv-x="391" d="M306 525T306 493V401Q306 369 246 369H214Q154 369 154 401V493Q154 525 214 525H246Q306 525 306 493ZM270 301T281 295T293 272Q293 230 279 193T236 119L214 93Q186 60 174 40T161
3Q161 -53 226 -53Q246 -53 262 -47T293 -31T313 -22Q326 -22 340 -37T365 -73T376 -104Q376 -129 350 -147T284 -175T206 -185Q114 -185 60 -141T5 -16Q5 24 16 53T44 102T90 150Q124 182 143 209T168 274Q172 289 184 295T221 301H244Q270 301 281 295Z" />
<glyph unicode="&#xc0;" glyph-name="Agrave" horiz-adv-x="505" d="M2 -2T2 20Q2 28 5 38L159 674Q166 702 220 702H285Q340 702 347 674L501 38Q503 24 503 20Q503 -2 460 -2H407Q359 -2 354 19L328 141H176L149 19Q145 -2 102 -2H50Q2 -2 2 20ZM311 263L266
475Q259 511 254 551H249Q244 511 237 475L193 263H311ZM261 749T248 752T220 769L156 821Q141 835 135 843T129 857Q129 868 144 871T195 875Q227 875 243 870T272 845L313 788Q324 769 324 761Q324 755 318 752T289 749Q261 749 248 752Z" />
<glyph unicode="&#xc1;" glyph-name="Aacute" horiz-adv-x="505" d="M2 -2T2 20Q2 28 5 38L159 674Q166 702 220 702H285Q340 702 347 674L501 38Q503 24 503 20Q503 -2 460 -2H407Q359 -2 354 19L328 141H176L149 19Q145 -2 102 -2H50Q2 -2 2 20ZM311 263L266
475Q259 511 254 551H249Q244 511 237 475L193 263H311ZM194 749T188 752T181 761Q181 773 192 788L233 845Q247 864 263 869T310 875Q346 875 361 872T376 857Q376 843 349 821L285 769Q270 756 257 753T216 749Q194 749 188 752Z" />
<glyph unicode="&#xc2;" glyph-name="Acircumflex" horiz-adv-x="505" d="M2 -2T2 20Q2 28 5 38L159 674Q166 702 220 702H285Q340 702 347 674L501 38Q503 24 503 20Q503 -2 460 -2H407Q359 -2 354 19L328 141H176L149 19Q145 -2 102 -2H50Q2 -2 2 20ZM311 263L266
475Q259 511 254 551H249Q244 511 237 475L193 263H311ZM141 734T130 737T119 750Q119 759 128 772L165 831Q176 850 191 855T241 860H265Q300 860 315 855T341 831L378 772Q387 759 387 750Q387 741 376 738T342 734Q319 734 310 736T287 751L253 783L219 751Q206
739 197 737T164 734Q141 734 130 737Z" />
<glyph unicode="&#xc3;" glyph-name="Atilde" horiz-adv-x="505" d="M2 -2T2 20Q2 28 5 38L159 674Q166 702 220 702H285Q340 702 347 674L501 38Q503 24 503 20Q503 -2 460 -2H407Q359 -2 354 19L328 141H176L149 19Q145 -2 102 -2H50Q2 -2 2 20ZM311 263L266
475Q259 511 254 551H249Q244 511 237 475L193 263H311ZM131 756T115 764T98 783Q98 793 103 805Q116 834 139 852T194 871Q213 871 229 866T268 851Q271 850 284 845T308 839Q319 839 325 843T341 859Q352 874 362 874Q374 874 390 865T407 845Q407 842 404 830Q393
801 368 780T312 759Q281 759 241 777Q238 778 224 783T198 789Q187 789 180 784T163 770Q149 756 141 756Q131 756 115 764Z" />
<glyph unicode="&#xc4;" glyph-name="Adieresis" horiz-adv-x="505" d="M2 -2T2 20Q2 28 5 38L159 674Q166 702 220 702H285Q340 702 347 674L501 38Q503 24 503 20Q503 -2 460 -2H407Q359 -2 354 19L328 141H176L149 19Q145 -2 102 -2H50Q2 -2 2 20ZM311 263L266
475Q259 511 254 551H249Q244 511 237 475L193 263H311ZM134 746T120 753T105 778V846Q105 863 119 870T165 878Q196 878 210 871T225 846V778Q225 761 211 754T165 746Q134 746 120 753ZM310 746T296 753T281 778V846Q281 863 295 870T341 878Q372 878 386 871T401
846V778Q401 761 387 754T341 746Q310 746 296 753Z" />
<glyph unicode="&#xc5;" glyph-name="Aring" horiz-adv-x="505" d="M2 -2T2 20Q2 28 5 38L159 674Q166 702 220 702H285Q340 702 347 674L501 38Q503 24 503 20Q503 -2 460 -2H407Q359 -2 354 19L328 141H176L149 19Q145 -2 102 -2H50Q2 -2 2 20ZM311 263L266
475Q259 511 254 551H249Q244 511 237 475L193 263H311ZM210 718T182 746T153 817Q153 860 181 888T252 917Q295 917 323 889T352 817Q352 775 324 747T252 718Q210 718 182 746ZM267 782T277 792T287 816Q287 831 277 841T252 851Q238 851 228 841T218 816Q218
802 228 792T252 782Q267 782 277 792Z" />
<glyph unicode="&#xc6;" glyph-name="AE" horiz-adv-x="746" d="M3 -2T3 20Q3 29 6 38L252 673Q262 700 287 700H679Q694 700 701 688T708 650V619Q708 593 701 581T679 569H451L466 424H659Q674 424 681 412T688 374V343Q688 317 681 305T659 293H483L500 131H680Q695
131 702 119T709 81V50Q709 24 702 12T680 0H393Q380 0 374 7T366 30L354 141H194L147 19Q140 -2 108 -2H62Q3 -2 3 20ZM342 273L326 454V526H322L299 455L235 273H342Z" />
<glyph unicode="&#xc7;" glyph-name="Ccedilla" horiz-adv-x="459" d="M390 140T396 140Q416 140 426 115T436 49Q436 34 430 24T407 7Q378 -3 333 -7L321 -52Q351 -57 368 -75T385 -120Q385 -165 355 -188T266 -212Q234 -212 206 -201T178 -171Q178 -155 188
-145T206 -134Q214 -134 226 -139Q229 -140 241 -143T269 -147Q303 -147 303 -121Q303 -109 294 -103T270 -91Q268 -90 262 -87T252 -82T249 -75Q249 -68 269 -7Q148 3 93 90T37 352Q37 532 103 620T309 708Q356 708 396 697Q427 688 427 654Q427 616 414 586T380
563Q348 573 316 573Q256 573 227 518T197 351Q197 239 226 184T321 128Q340 128 353 130T387 139Q390 140 396 140Z" />
<glyph unicode="&#xc8;" glyph-name="Egrave" horiz-adv-x="457" d="M76 0T67 9T58 40V660Q58 681 67 690T95 700H390Q405 700 412 688T419 650V619Q419 593 412 581T390 569H214V424H370Q385 424 392 412T399 374V343Q399 317 392 305T370 293H214V131H391Q406
131 412 119T419 81V50Q419 24 413 12T391 0H95Q76 0 67 9ZM243 749T230 752T202 769L138 821Q123 835 117 843T111 857Q111 868 126 871T177 875Q209 875 225 870T254 845L295 788Q306 769 306 761Q306 755 300 752T271 749Q243 749 230 752Z" />
<glyph unicode="&#xc9;" glyph-name="Eacute" horiz-adv-x="457" d="M76 0T67 9T58 40V660Q58 681 67 690T95 700H390Q405 700 412 688T419 650V619Q419 593 412 581T390 569H214V424H370Q385 424 392 412T399 374V343Q399 317 392 305T370 293H214V131H391Q406
131 412 119T419 81V50Q419 24 413 12T391 0H95Q76 0 67 9ZM176 749T170 752T163 761Q163 773 174 788L215 845Q229 864 245 869T292 875Q328 875 343 872T358 857Q358 843 331 821L267 769Q252 756 239 753T198 749Q176 749 170 752Z" />
<glyph unicode="&#xca;" glyph-name="Ecircumflex" horiz-adv-x="457" d="M76 0T67 9T58 40V660Q58 681 67 690T95 700H390Q405 700 412 688T419 650V619Q419 593 412 581T390 569H214V424H370Q385 424 392 412T399 374V343Q399 317 392 305T370 293H214V131H391Q406
131 412 119T419 81V50Q419 24 413 12T391 0H95Q76 0 67 9ZM123 734T112 737T101 750Q101 759 110 772L147 831Q158 850 173 855T223 860H247Q282 860 297 855T323 831L360 772Q369 759 369 750Q369 741 358 738T324 734Q301 734 292 736T269 751L235 783L201 751Q188
739 179 737T146 734Q123 734 112 737Z" />
<glyph unicode="&#xcb;" glyph-name="Edieresis" horiz-adv-x="457" d="M76 0T67 9T58 40V660Q58 681 67 690T95 700H390Q405 700 412 688T419 650V619Q419 593 412 581T390 569H214V424H370Q385 424 392 412T399 374V343Q399 317 392 305T370 293H214V131H391Q406
131 412 119T419 81V50Q419 24 413 12T391 0H95Q76 0 67 9ZM116 746T102 753T87 778V846Q87 863 101 870T147 878Q178 878 192 871T207 846V778Q207 761 193 754T147 746Q116 746 102 753ZM292 746T278 753T263 778V846Q263 863 277 870T323 878Q354 878 368 871T383
846V778Q383 761 369 754T323 746Q292 746 278 753Z" />
<glyph unicode="&#xcc;" glyph-name="Igrave" horiz-adv-x="262" d="M52 -3T52 30V670Q52 703 110 703H152Q209 703 209 670V30Q209 -3 152 -3H110Q52 -3 52 30ZM139 749T126 752T98 769L34 821Q19 835 13 843T7 857Q7 868 22 871T73 875Q105 875 121 870T150
845L191 788Q202 769 202 761Q202 755 196 752T167 749Q139 749 126 752Z" />
<glyph unicode="&#xcd;" glyph-name="Iacute" horiz-adv-x="262" d="M52 -3T52 30V670Q52 703 110 703H152Q209 703 209 670V30Q209 -3 152 -3H110Q52 -3 52 30ZM72 749T66 752T59 761Q59 773 70 788L111 845Q125 864 141 869T188 875Q224 875 239 872T254 857Q254
843 227 821L163 769Q148 756 135 753T94 749Q72 749 66 752Z" />
<glyph unicode="&#xce;" glyph-name="Icircumflex" horiz-adv-x="262" d="M52 -3T52 30V670Q52 703 110 703H152Q209 703 209 670V30Q209 -3 152 -3H110Q52 -3 52 30ZM19 734T8 737T-3 750Q-3 759 6 772L43 831Q54 850 69 855T119 860H143Q178 860 193 855T219
831L256 772Q265 759 265 750Q265 741 254 738T220 734Q197 734 188 736T165 751L131 783L97 751Q84 739 75 737T42 734Q19 734 8 737Z" />
<glyph unicode="&#xcf;" glyph-name="Idieresis" horiz-adv-x="262" d="M52 -3T52 30V670Q52 703 110 703H152Q209 703 209 670V30Q209 -3 152 -3H110Q52 -3 52 30ZM12 746T-2 753T-17 778V846Q-17 863 -3 870T43 878Q74 878 88 871T103 846V778Q103 761 89 754T43
746Q12 746 -2 753ZM188 746T174 753T159 778V846Q159 863 173 870T219 878Q250 878 264 871T279 846V778Q279 761 265 754T219 746Q188 746 174 753Z" />
<glyph unicode="&#xd0;" glyph-name="Eth" horiz-adv-x="577" d="M414 700T475 613T537 350Q537 174 476 87T284 0H94Q75 0 66 9T57 40V291H36Q21 291 14 303T7 341V371Q7 397 14 409T36 421H57V660Q57 681 66 690T94 700H284Q414 700 475 613ZM332 131T355 180T378
350Q378 470 355 519T279 569H215V421H264Q279 421 286 409T293 371V341Q293 315 286 303T264 291H215V131H279Q332 131 355 180Z" />
<glyph unicode="&#xd1;" glyph-name="Ntilde" horiz-adv-x="590" d="M52 -2T52 30V670Q52 702 110 702H136Q156 702 168 697T188 674L368 348Q382 322 402 270L406 272Q398 324 398 351V670Q398 702 456 702H480Q538 702 538 670V30Q538 -2 480 -2H461Q441 -2
428 3T407 26L216 366Q207 381 189 430L184 427Q192 381 192 359V30Q192 -2 134 -2H110Q52 -2 52 30ZM173 756T157 764T140 783Q140 793 145 805Q158 834 181 852T236 871Q255 871 271 866T310 851Q313 850 326 845T350 839Q361 839 367 843T383 859Q394 874 404
874Q416 874 432 865T449 845Q449 842 446 830Q435 801 410 780T354 759Q323 759 283 777Q280 778 266 783T240 789Q229 789 222 784T205 770Q191 756 183 756Q173 756 157 764Z" />
<glyph unicode="&#xd2;" glyph-name="Ograve" horiz-adv-x="599" d="M38 -8T38 350Q38 708 300 708Q428 708 494 621T561 350Q561 166 495 79T300 -8Q38 -8 38 350ZM337 123T359 143T392 212T403 350Q403 437 392 486T359 556T301 576Q265 576 243 556T209 487T197
350Q197 263 208 213T242 143T301 123Q337 123 359 143ZM308 749T295 752T267 769L203 821Q188 835 182 843T176 857Q176 868 191 871T242 875Q274 875 290 870T319 845L360 788Q371 769 371 761Q371 755 365 752T336 749Q308 749 295 752Z" />
<glyph unicode="&#xd3;" glyph-name="Oacute" horiz-adv-x="599" d="M38 -8T38 350Q38 708 300 708Q428 708 494 621T561 350Q561 166 495 79T300 -8Q38 -8 38 350ZM337 123T359 143T392 212T403 350Q403 437 392 486T359 556T301 576Q265 576 243 556T209 487T197
350Q197 263 208 213T242 143T301 123Q337 123 359 143ZM241 749T235 752T228 761Q228 773 239 788L280 845Q294 864 310 869T357 875Q393 875 408 872T423 857Q423 843 396 821L332 769Q317 756 304 753T263 749Q241 749 235 752Z" />
<glyph unicode="&#xd4;" glyph-name="Ocircumflex" horiz-adv-x="599" d="M38 -8T38 350Q38 708 300 708Q428 708 494 621T561 350Q561 166 495 79T300 -8Q38 -8 38 350ZM337 123T359 143T392 212T403 350Q403 437 392 486T359 556T301 576Q265 576 243 556T209
487T197 350Q197 263 208 213T242 143T301 123Q337 123 359 143ZM188 734T177 737T166 750Q166 759 175 772L212 831Q223 850 238 855T288 860H312Q347 860 362 855T388 831L425 772Q434 759 434 750Q434 741 423 738T389 734Q366 734 357 736T334 751L300 783L266
751Q253 739 244 737T211 734Q188 734 177 737Z" />
<glyph unicode="&#xd5;" glyph-name="Otilde" horiz-adv-x="599" d="M38 -8T38 350Q38 708 300 708Q428 708 494 621T561 350Q561 166 495 79T300 -8Q38 -8 38 350ZM337 123T359 143T392 212T403 350Q403 437 392 486T359 556T301 576Q265 576 243 556T209 487T197
350Q197 263 208 213T242 143T301 123Q337 123 359 143ZM178 756T162 764T145 783Q145 793 150 805Q163 834 186 852T241 871Q260 871 276 866T315 851Q318 850 331 845T355 839Q366 839 372 843T388 859Q399 874 409 874Q421 874 437 865T454 845Q454 842 451
830Q440 801 415 780T359 759Q328 759 288 777Q285 778 271 783T245 789Q234 789 227 784T210 770Q196 756 188 756Q178 756 162 764Z" />
<glyph unicode="&#xd6;" glyph-name="Odieresis" horiz-adv-x="599" d="M38 -8T38 350Q38 708 300 708Q428 708 494 621T561 350Q561 166 495 79T300 -8Q38 -8 38 350ZM337 123T359 143T392 212T403 350Q403 437 392 486T359 556T301 576Q265 576 243 556T209
487T197 350Q197 263 208 213T242 143T301 123Q337 123 359 143ZM181 746T167 753T152 778V846Q152 863 166 870T212 878Q243 878 257 871T272 846V778Q272 761 258 754T212 746Q181 746 167 753ZM357 746T343 753T328 778V846Q328 863 342 870T388 878Q419 878
433 871T448 846V778Q448 761 434 754T388 746Q357 746 343 753Z" />
<glyph unicode="&#xd7;" glyph-name="multiply" horiz-adv-x="448" d="M85 10T67 21T34 45T19 67Q19 75 34 95L140 242L34 389Q20 408 20 416Q20 425 34 439T66 464T90 475Q97 475 108 464L214 317L314 458Q324 472 336 472Q343 472 361 461T393 437T407 415Q407
407 395 389L288 242L395 95Q409 74 409 67Q409 58 395 45T362 22T336 12Q324 12 314 26L214 167L108 20Q100 10 92 10Q85 10 67 21Z" />
<glyph unicode="&#xd8;" glyph-name="Oslash" horiz-adv-x="599" d="M561 517T561 350Q561 166 495 79T300 -8Q200 -8 138 44L104 -7Q94 -23 80 -23Q66 -23 48 -9T29 18Q29 26 36 36L85 111Q38 197 38 350Q38 708 300 708Q389 708 449 666L481 714Q487 722 492
726T504 730Q518 730 536 716T555 689Q555 679 548 670L505 605Q561 517 561 350ZM197 324T199 284L369 544Q347 576 301 576Q265 576 243 556T209 487T197 350Q197 324 199 284ZM337 123T359 143T392 212T403 350Q403 408 399 443L222 173Q234 146 253 135T301
123Q337 123 359 143Z" />
<glyph unicode="&#xd9;" glyph-name="Ugrave" horiz-adv-x="583" d="M179 -8T115 48T51 205V670Q51 702 109 702H149Q207 702 207 670V215Q207 174 230 149T292 123Q330 123 353 149T377 215V670Q377 702 435 702H474Q532 702 532 670V205Q532 104 469 48T292
-8Q179 -8 115 48ZM300 749T287 752T259 769L195 821Q180 835 174 843T168 857Q168 868 183 871T234 875Q266 875 282 870T311 845L352 788Q363 769 363 761Q363 755 357 752T328 749Q300 749 287 752Z" />
<glyph unicode="&#xda;" glyph-name="Uacute" horiz-adv-x="583" d="M179 -8T115 48T51 205V670Q51 702 109 702H149Q207 702 207 670V215Q207 174 230 149T292 123Q330 123 353 149T377 215V670Q377 702 435 702H474Q532 702 532 670V205Q532 104 469 48T292
-8Q179 -8 115 48ZM233 749T227 752T220 761Q220 773 231 788L272 845Q286 864 302 869T349 875Q385 875 400 872T415 857Q415 843 388 821L324 769Q309 756 296 753T255 749Q233 749 227 752Z" />
<glyph unicode="&#xdb;" glyph-name="Ucircumflex" horiz-adv-x="583" d="M179 -8T115 48T51 205V670Q51 702 109 702H149Q207 702 207 670V215Q207 174 230 149T292 123Q330 123 353 149T377 215V670Q377 702 435 702H474Q532 702 532 670V205Q532 104 469 48T292
-8Q179 -8 115 48ZM180 734T169 737T158 750Q158 759 167 772L204 831Q215 850 230 855T280 860H304Q339 860 354 855T380 831L417 772Q426 759 426 750Q426 741 415 738T381 734Q358 734 349 736T326 751L292 783L258 751Q245 739 236 737T203 734Q180 734 169
737Z" />
<glyph unicode="&#xdc;" glyph-name="Udieresis" horiz-adv-x="583" d="M179 -8T115 48T51 205V670Q51 702 109 702H149Q207 702 207 670V215Q207 174 230 149T292 123Q330 123 353 149T377 215V670Q377 702 435 702H474Q532 702 532 670V205Q532 104 469 48T292
-8Q179 -8 115 48ZM173 746T159 753T144 778V846Q144 863 158 870T204 878Q235 878 249 871T264 846V778Q264 761 250 754T204 746Q173 746 159 753ZM349 746T335 753T320 778V846Q320 863 334 870T380 878Q411 878 425 871T440 846V778Q440 761 426 754T380 746Q349
746 335 753Z" />
<glyph unicode="&#xdd;" glyph-name="Yacute" horiz-adv-x="484" d="M165 -2T165 30V302L11 657Q9 661 6 669T2 682Q2 691 17 696T62 702H113Q162 702 168 683L246 437L323 683Q326 694 340 698T378 702H420Q483 702 483 682Q483 672 476 657L322 299V30Q322 -2
263 -2H224Q165 -2 165 30ZM183 749T177 752T170 761Q170 773 181 788L222 845Q236 864 252 869T299 875Q335 875 350 872T365 857Q365 843 338 821L274 769Q259 756 246 753T205 749Q183 749 177 752Z" />
<glyph unicode="&#xde;" glyph-name="Thorn" horiz-adv-x="482" d="M55 -2T55 30V670Q55 702 113 702H153Q211 702 211 670V591H268Q347 591 407 546T468 372Q468 284 433 236T355 170T278 153H211V30Q211 -2 153 -2H113Q55 -2 55 30ZM261 282Q285 282 301 302T318
372Q318 421 302 440T261 460H211V282H261Z" />
<glyph unicode="&#xdf;" glyph-name="germandbls" horiz-adv-x="480" d="M47 -2T47 30V501Q47 597 100 652T249 708Q337 708 391 662T446 524Q446 471 427 433T370 376V372Q417 349 438 311T460 205Q460 105 410 53T271 0H254Q238 0 231 12T224 50V67Q224 93 231
105T254 117H262Q287 117 300 137T314 205Q314 256 299 278T256 300H254Q238 300 231 312T224 350V367Q224 417 251 417H254Q274 417 285 438T296 501Q296 543 285 563T249 583Q224 583 210 566T195 519V30Q195 -2 135 -2H107Q47 -2 47 30Z" />
<glyph unicode="&#xe0;" glyph-name="agrave" horiz-adv-x="481" d="M109 -8T74 34T38 149Q38 336 271 335V351Q271 383 257 398T210 414Q188 414 171 409T133 393Q119 385 112 385Q102 385 90 400T69 434T60 465Q60 482 83 497T144 522T221 531Q325 531 372 485T419
358V176Q419 130 421 106T428 53Q431 40 431 31Q431 15 391 7T319 -1Q303 -1 297 11T283 50Q270 28 242 10T175 -8Q109 -8 74 34ZM236 99T249 108T271 132V249Q171 249 171 160Q171 132 184 116T220 99Q236 99 249 108ZM222 572T208 578T180 602L133 665Q123 677
119 685T114 701Q114 711 125 714T165 718Q204 718 221 712T247 687L281 615Q290 594 290 587Q290 580 282 576T249 572Q222 572 208 578Z" />
<glyph unicode="&#xe1;" glyph-name="aacute" horiz-adv-x="481" d="M109 -8T74 34T38 149Q38 336 271 335V351Q271 383 257 398T210 414Q188 414 171 409T133 393Q119 385 112 385Q102 385 90 400T69 434T60 465Q60 482 83 497T144 522T221 531Q325 531 372 485T419
358V176Q419 130 421 106T428 53Q431 40 431 31Q431 15 391 7T319 -1Q303 -1 297 11T283 50Q270 28 242 10T175 -8Q109 -8 74 34ZM236 99T249 108T271 132V249Q171 249 171 160Q171 132 184 116T220 99Q236 99 249 108ZM184 572T176 576T167 587Q167 594 176 615L210
687Q219 705 236 711T292 718Q321 718 332 715T343 701Q343 693 339 685T324 665L277 602Q263 585 249 579T208 572Q184 572 176 576Z" />
<glyph unicode="&#xe2;" glyph-name="acircumflex" horiz-adv-x="481" d="M109 -8T74 34T38 149Q38 336 271 335V351Q271 383 257 398T210 414Q188 414 171 409T133 393Q119 385 112 385Q102 385 90 400T69 434T60 465Q60 482 83 497T144 522T221 531Q325 531
372 485T419 358V176Q419 130 421 106T428 53Q431 40 431 31Q431 15 391 7T319 -1Q303 -1 297 11T283 50Q270 28 242 10T175 -8Q109 -8 74 34ZM236 99T249 108T271 132V249Q171 249 171 160Q171 132 184 116T220 99Q236 99 249 108ZM110 572T110 587Q110 594 119
615L153 687Q162 705 177 711T225 718H243Q277 718 292 712T316 687L350 615Q359 594 359 587Q359 572 328 572Q298 572 285 578T261 602L235 646L208 602Q197 584 184 578T141 572Q110 572 110 587Z" />
<glyph unicode="&#xe3;" glyph-name="atilde" horiz-adv-x="481" d="M109 -8T74 34T38 149Q38 336 271 335V351Q271 383 257 398T210 414Q188 414 171 409T133 393Q119 385 112 385Q102 385 90 400T69 434T60 465Q60 482 83 497T144 522T221 531Q325 531 372 485T419
358V176Q419 130 421 106T428 53Q431 40 431 31Q431 15 391 7T319 -1Q303 -1 297 11T283 50Q270 28 242 10T175 -8Q109 -8 74 34ZM236 99T249 108T271 132V249Q171 249 171 160Q171 132 184 116T220 99Q236 99 249 108ZM112 586T96 594T79 614Q79 618 80 625T84
638Q113 704 173 704Q203 704 247 685Q279 672 293 672Q303 672 310 676T325 690Q326 691 331 696T344 702Q356 702 373 692T391 671Q391 665 384 647Q373 620 349 603T295 586Q277 586 261 590T223 604Q190 617 173 617Q162 617 155 612T139 598Q138 597 133 592T121
586Q112 586 96 594Z" />
<glyph unicode="&#xe4;" glyph-name="adieresis" horiz-adv-x="481" d="M109 -8T74 34T38 149Q38 336 271 335V351Q271 383 257 398T210 414Q188 414 171 409T133 393Q119 385 112 385Q102 385 90 400T69 434T60 465Q60 482 83 497T144 522T221 531Q325 531 372
485T419 358V176Q419 130 421 106T428 53Q431 40 431 31Q431 15 391 7T319 -1Q303 -1 297 11T283 50Q270 28 242 10T175 -8Q109 -8 74 34ZM236 99T249 108T271 132V249Q171 249 171 160Q171 132 184 116T220 99Q236 99 249 108ZM114 581T100 588T85 613V677Q85
694 99 701T147 709Q180 709 194 702T209 677V613Q209 596 195 589T147 581Q114 581 100 588ZM290 581T276 588T261 613V677Q261 694 275 701T323 709Q356 709 370 702T385 677V613Q385 596 371 589T323 581Q290 581 276 588Z" />
<glyph unicode="&#xe5;" glyph-name="aring" horiz-adv-x="481" d="M109 -8T74 34T38 149Q38 336 271 335V351Q271 383 257 398T210 414Q188 414 171 409T133 393Q119 385 112 385Q102 385 90 400T69 434T60 465Q60 482 83 497T144 522T221 531Q325 531 372 485T419
358V176Q419 130 421 106T428 53Q431 40 431 31Q431 15 391 7T319 -1Q303 -1 297 11T283 50Q270 28 242 10T175 -8Q109 -8 74 34ZM236 99T249 108T271 132V249Q171 249 171 160Q171 132 184 116T220 99Q236 99 249 108ZM191 541T166 567T140 640Q140 686 165 713T234
740Q277 740 303 713T329 640Q329 594 304 568T234 541Q191 541 166 567ZM264 606T264 640Q264 675 234 675Q205 675 205 640Q205 606 234 606Q264 606 264 640Z" />
<glyph unicode="&#xe6;" glyph-name="ae" horiz-adv-x="688" d="M116 -8T77 34T38 149Q38 336 272 335Q275 358 281 378Q267 414 212 414Q191 414 176 409T136 394Q118 385 112 385Q102 385 90 400T69 434T60 465Q60 482 83 497T145 522T225 531Q266 531 300 523T357
500Q402 531 474 531Q574 531 618 464T662 266Q662 254 642 231T611 207H422Q422 155 444 132T501 109Q522 109 539 115T577 130Q593 138 598 138Q612 138 630 109T649 61Q649 40 623 25T560 1T489 -8Q388 -8 329 51Q311 26 273 9T188 -8Q116 -8 77 34ZM520 306Q520
365 510 389T475 414Q451 414 437 391T419 306H520ZM238 109T254 117T281 142Q270 182 268 238Q179 238 179 160Q179 137 189 123T220 109Q238 109 254 117Z" />
<glyph unicode="&#xe7;" glyph-name="ccedilla" horiz-adv-x="408" d="M396 38T361 20T281 -5L268 -52Q298 -57 315 -75T332 -120Q332 -165 302 -188T213 -212Q181 -212 153 -201T125 -171Q125 -155 135 -145T153 -134Q161 -134 173 -139Q176 -140 188 -143T216
-147Q250 -147 250 -121Q250 -109 241 -103T217 -91Q215 -90 209 -87T199 -82T196 -75Q196 -68 216 -7Q34 13 34 260Q34 531 250 531Q286 531 319 522T374 496T395 462Q395 444 380 415T350 386Q344 386 331 394Q313 403 299 408T266 414Q225 414 205 379T185 262Q185
180 204 145T263 109Q281 109 296 114T321 124T334 130Q348 137 352 137Q367 137 381 109T396 61Q396 38 361 20Z" />
<glyph unicode="&#xe8;" glyph-name="egrave" horiz-adv-x="454" d="M144 -8T89 59T34 258Q34 406 88 468T242 531Q340 531 384 462T428 262Q428 250 408 227T377 203H187Q189 152 210 131T267 109Q289 109 307 115T342 129T363 138Q373 138 385 124T406 91T415
62Q415 39 388 24T325 0T260 -8Q144 -8 89 59ZM293 292Q293 363 281 393T241 424Q214 424 200 395T181 292H293ZM224 572T210 578T182 602L135 665Q125 677 121 685T116 701Q116 711 127 714T167 718Q206 718 223 712T249 687L283 615Q292 594 292 587Q292 580
284 576T251 572Q224 572 210 578Z" />
<glyph unicode="&#xe9;" glyph-name="eacute" horiz-adv-x="454" d="M144 -8T89 59T34 258Q34 406 88 468T242 531Q340 531 384 462T428 262Q428 250 408 227T377 203H187Q189 152 210 131T267 109Q289 109 307 115T342 129T363 138Q373 138 385 124T406 91T415
62Q415 39 388 24T325 0T260 -8Q144 -8 89 59ZM293 292Q293 363 281 393T241 424Q214 424 200 395T181 292H293ZM186 572T178 576T169 587Q169 594 178 615L212 687Q221 705 238 711T294 718Q323 718 334 715T345 701Q345 693 341 685T326 665L279 602Q265 585
251 579T210 572Q186 572 178 576Z" />
<glyph unicode="&#xea;" glyph-name="ecircumflex" horiz-adv-x="454" d="M144 -8T89 59T34 258Q34 406 88 468T242 531Q340 531 384 462T428 262Q428 250 408 227T377 203H187Q189 152 210 131T267 109Q289 109 307 115T342 129T363 138Q373 138 385 124T406
91T415 62Q415 39 388 24T325 0T260 -8Q144 -8 89 59ZM293 292Q293 363 281 393T241 424Q214 424 200 395T181 292H293ZM112 572T112 587Q112 594 121 615L155 687Q164 705 179 711T227 718H245Q279 718 294 712T318 687L352 615Q361 594 361 587Q361 572 330 572Q300
572 287 578T263 602L237 646L210 602Q199 584 186 578T143 572Q112 572 112 587Z" />
<glyph unicode="&#xeb;" glyph-name="edieresis" horiz-adv-x="454" d="M144 -8T89 59T34 258Q34 406 88 468T242 531Q340 531 384 462T428 262Q428 250 408 227T377 203H187Q189 152 210 131T267 109Q289 109 307 115T342 129T363 138Q373 138 385 124T406 91T415
62Q415 39 388 24T325 0T260 -8Q144 -8 89 59ZM293 292Q293 363 281 393T241 424Q214 424 200 395T181 292H293ZM116 581T102 588T87 613V677Q87 694 101 701T149 709Q182 709 196 702T211 677V613Q211 596 197 589T149 581Q116 581 102 588ZM292 581T278 588T263
613V677Q263 694 277 701T325 709Q358 709 372 702T387 677V613Q387 596 373 589T325 581Q292 581 278 588Z" />
<glyph unicode="&#xec;" glyph-name="igrave" horiz-adv-x="254" d="M53 -2T53 30V493Q53 525 113 525H141Q201 525 201 493V30Q201 -2 141 -2H113Q53 -2 53 30ZM115 572T101 578T73 602L26 665Q16 677 12 685T7 701Q7 711 18 714T58 718Q97 718 114 712T140 687L174
615Q183 594 183 587Q183 580 175 576T142 572Q115 572 101 578Z" />
<glyph unicode="&#xed;" glyph-name="iacute" horiz-adv-x="254" d="M53 -2T53 30V493Q53 525 113 525H141Q201 525 201 493V30Q201 -2 141 -2H113Q53 -2 53 30ZM77 572T69 576T60 587Q60 594 69 615L103 687Q112 705 129 711T185 718Q214 718 225 715T236 701Q236
693 232 685T217 665L170 602Q156 585 142 579T101 572Q77 572 69 576Z" />
<glyph unicode="&#xee;" glyph-name="icircumflex" horiz-adv-x="254" d="M53 -2T53 30V493Q53 525 113 525H141Q201 525 201 493V30Q201 -2 141 -2H113Q53 -2 53 30ZM3 572T3 587Q3 594 12 615L46 687Q55 705 70 711T118 718H136Q170 718 185 712T209 687L243
615Q252 594 252 587Q252 572 221 572Q191 572 178 578T154 602L128 646L101 602Q90 584 77 578T34 572Q3 572 3 587Z" />
<glyph unicode="&#xef;" glyph-name="idieresis" horiz-adv-x="254" d="M53 -2T53 30V493Q53 525 113 525H141Q201 525 201 493V30Q201 -2 141 -2H113Q53 -2 53 30ZM7 581T-7 588T-22 613V677Q-22 694 -8 701T40 709Q73 709 87 702T102 677V613Q102 596 88 589T40
581Q7 581 -7 588ZM183 581T169 588T154 613V677Q154 694 168 701T216 709Q249 709 263 702T278 677V613Q278 596 264 589T216 581Q183 581 169 588Z" />
<glyph unicode="&#xf0;" glyph-name="eth" horiz-adv-x="477" d="M386 542T414 450T443 262Q443 131 391 62T238 -8Q138 -8 86 61T34 262Q34 391 85 458T238 526Q249 526 255 525Q246 546 223 589Q168 581 162 581Q147 581 135 594T123 623Q123 636 144 639L187
645L173 663Q149 689 149 696Q149 705 168 708L230 715Q251 715 268 704Q283 693 308 661L376 670Q389 670 401 657T413 628Q413 615 392 612L346 606Q386 542 414 450ZM268 109T280 143T293 262Q293 343 281 376T239 409Q209 409 197 376T184 262Q184 178 196
144T239 109Q268 109 280 143Z" />
<glyph unicode="&#xf1;" glyph-name="ntilde" horiz-adv-x="482" d="M50 -2T50 30V349Q50 420 45 450T40 487Q40 505 82 513T155 522Q174 522 180 511T188 483T193 455Q215 488 248 509T324 531Q379 531 407 496T436 392V30Q436 -2 378 -2H344Q286 -2 286 30V358Q286
384 278 396T249 409Q222 409 199 377V30Q199 14 185 6T142 -2H107Q50 -2 50 30ZM119 586T103 594T86 614Q86 618 87 625T91 638Q120 704 180 704Q210 704 254 685Q286 672 300 672Q310 672 317 676T332 690Q333 691 338 696T351 702Q363 702 380 692T398 671Q398
665 391 647Q380 620 356 603T302 586Q284 586 268 590T230 604Q197 617 180 617Q169 617 162 612T146 598Q145 597 140 592T128 586Q119 586 103 594Z" />
<glyph unicode="&#xf2;" glyph-name="ograve" horiz-adv-x="477" d="M138 -8T86 61T34 262Q34 393 85 462T238 531Q339 531 391 462T443 262Q443 131 391 62T238 -8Q138 -8 86 61ZM268 109T280 143T293 262Q293 346 281 380T239 414Q209 414 197 380T184 262Q184
178 196 144T239 109Q268 109 280 143ZM226 572T212 578T184 602L137 665Q127 677 123 685T118 701Q118 711 129 714T169 718Q208 718 225 712T251 687L285 615Q294 594 294 587Q294 580 286 576T253 572Q226 572 212 578Z" />
<glyph unicode="&#xf3;" glyph-name="oacute" horiz-adv-x="477" d="M138 -8T86 61T34 262Q34 393 85 462T238 531Q339 531 391 462T443 262Q443 131 391 62T238 -8Q138 -8 86 61ZM268 109T280 143T293 262Q293 346 281 380T239 414Q209 414 197 380T184 262Q184
178 196 144T239 109Q268 109 280 143ZM188 572T180 576T171 587Q171 594 180 615L214 687Q223 705 240 711T296 718Q325 718 336 715T347 701Q347 693 343 685T328 665L281 602Q267 585 253 579T212 572Q188 572 180 576Z" />
<glyph unicode="&#xf4;" glyph-name="ocircumflex" horiz-adv-x="477" d="M138 -8T86 61T34 262Q34 393 85 462T238 531Q339 531 391 462T443 262Q443 131 391 62T238 -8Q138 -8 86 61ZM268 109T280 143T293 262Q293 346 281 380T239 414Q209 414 197 380T184
262Q184 178 196 144T239 109Q268 109 280 143ZM114 572T114 587Q114 594 123 615L157 687Q166 705 181 711T229 718H247Q281 718 296 712T320 687L354 615Q363 594 363 587Q363 572 332 572Q302 572 289 578T265 602L239 646L212 602Q201 584 188 578T145 572Q114
572 114 587Z" />
<glyph unicode="&#xf5;" glyph-name="otilde" horiz-adv-x="477" d="M138 -8T86 61T34 262Q34 393 85 462T238 531Q339 531 391 462T443 262Q443 131 391 62T238 -8Q138 -8 86 61ZM268 109T280 143T293 262Q293 346 281 380T239 414Q209 414 197 380T184 262Q184
178 196 144T239 109Q268 109 280 143ZM116 586T100 594T83 614Q83 618 84 625T88 638Q117 704 177 704Q207 704 251 685Q283 672 297 672Q307 672 314 676T329 690Q330 691 335 696T348 702Q360 702 377 692T395 671Q395 665 388 647Q377 620 353 603T299 586Q281
586 265 590T227 604Q194 617 177 617Q166 617 159 612T143 598Q142 597 137 592T125 586Q116 586 100 594Z" />
<glyph unicode="&#xf6;" glyph-name="odieresis" horiz-adv-x="477" d="M138 -8T86 61T34 262Q34 393 85 462T238 531Q339 531 391 462T443 262Q443 131 391 62T238 -8Q138 -8 86 61ZM268 109T280 143T293 262Q293 346 281 380T239 414Q209 414 197 380T184 262Q184
178 196 144T239 109Q268 109 280 143ZM118 581T104 588T89 613V677Q89 694 103 701T151 709Q184 709 198 702T213 677V613Q213 596 199 589T151 581Q118 581 104 588ZM294 581T280 588T265 613V677Q265 694 279 701T327 709Q360 709 374 702T389 677V613Q389 596
375 589T327 581Q294 581 280 588Z" />
<glyph unicode="&#xf7;" glyph-name="divide" horiz-adv-x="448" d="M160 318T160 350V421Q160 453 218 453H230Q288 453 288 421V350Q288 318 230 318H218Q160 318 160 350ZM29 172T22 184T15 222V229Q15 255 22 267T45 279H403Q419 279 426 267T433 229V222Q433
196 426 184T403 172H45Q29 172 22 184ZM160 -2T160 30V101Q160 133 218 133H230Q288 133 288 101V30Q288 -2 230 -2H218Q160 -2 160 30Z" />
<glyph unicode="&#xf8;" glyph-name="oslash" horiz-adv-x="477" d="M404 443Q443 377 443 262Q443 131 391 62T238 -8Q166 -8 117 30L93 -5Q84 -18 73 -18Q60 -18 41 -3T21 25Q21 31 25 37T30 46L65 97Q34 159 34 262Q34 393 85 462T238 531Q302 531 346 504L369
537Q378 550 390 550Q404 550 423 536T443 509Q443 501 435 488L404 443ZM210 414T198 382T184 269L272 397Q261 414 239 414Q210 414 198 382ZM293 283L196 144Q209 109 239 109Q268 109 280 143T293 262V283Z" />
<glyph unicode="&#xf9;" glyph-name="ugrave" horiz-adv-x="482" d="M105 -9T76 26T46 130V493Q46 525 104 525H138Q196 525 196 493V163Q196 138 204 126T233 113Q260 113 283 145V493Q283 509 297 517T340 525H375Q432 525 432 493V174Q432 103 437 72T442 34Q442
16 400 8T327 0Q308 0 302 11T294 39T289 67Q267 34 236 13T163 -9Q105 -9 76 26ZM227 572T213 578T185 602L138 665Q128 677 124 685T119 701Q119 711 130 714T170 718Q209 718 226 712T252 687L286 615Q295 594 295 587Q295 580 287 576T254 572Q227 572 213
578Z" />
<glyph unicode="&#xfa;" glyph-name="uacute" horiz-adv-x="482" d="M105 -9T76 26T46 130V493Q46 525 104 525H138Q196 525 196 493V163Q196 138 204 126T233 113Q260 113 283 145V493Q283 509 297 517T340 525H375Q432 525 432 493V174Q432 103 437 72T442 34Q442
16 400 8T327 0Q308 0 302 11T294 39T289 67Q267 34 236 13T163 -9Q105 -9 76 26ZM189 572T181 576T172 587Q172 594 181 615L215 687Q224 705 241 711T297 718Q326 718 337 715T348 701Q348 693 344 685T329 665L282 602Q268 585 254 579T213 572Q189 572 181
576Z" />
<glyph unicode="&#xfb;" glyph-name="ucircumflex" horiz-adv-x="482" d="M105 -9T76 26T46 130V493Q46 525 104 525H138Q196 525 196 493V163Q196 138 204 126T233 113Q260 113 283 145V493Q283 509 297 517T340 525H375Q432 525 432 493V174Q432 103 437 72T442
34Q442 16 400 8T327 0Q308 0 302 11T294 39T289 67Q267 34 236 13T163 -9Q105 -9 76 26ZM115 572T115 587Q115 594 124 615L158 687Q167 705 182 711T230 718H248Q282 718 297 712T321 687L355 615Q364 594 364 587Q364 572 333 572Q303 572 290 578T266 602L240
646L213 602Q202 584 189 578T146 572Q115 572 115 587Z" />
<glyph unicode="&#xfc;" glyph-name="udieresis" horiz-adv-x="482" d="M105 -9T76 26T46 130V493Q46 525 104 525H138Q196 525 196 493V163Q196 138 204 126T233 113Q260 113 283 145V493Q283 509 297 517T340 525H375Q432 525 432 493V174Q432 103 437 72T442
34Q442 16 400 8T327 0Q308 0 302 11T294 39T289 67Q267 34 236 13T163 -9Q105 -9 76 26ZM119 581T105 588T90 613V677Q90 694 104 701T152 709Q185 709 199 702T214 677V613Q214 596 200 589T152 581Q119 581 105 588ZM295 581T281 588T266 613V677Q266 694 280
701T328 709Q361 709 375 702T390 677V613Q390 596 376 589T328 581Q295 581 281 588Z" />
<glyph unicode="&#xfd;" glyph-name="yacute" horiz-adv-x="408" d="M404 525T404 503Q404 499 402 485L232 -185Q227 -206 177 -206H157Q101 -206 101 -185Q101 -178 104 -167L147 -11L10 480Q6 492 6 502Q6 525 56 525H99Q122 525 134 521T150 502L187 299Q193
263 203 187H207Q212 222 214 232Q220 280 224 299L264 504Q268 525 317 525H346Q404 525 404 503ZM153 572T145 576T136 587Q136 594 145 615L179 687Q188 705 205 711T261 718Q290 718 301 715T312 701Q312 693 308 685T293 665L246 602Q232 585 218 579T177
572Q153 572 145 576Z" />
<glyph unicode="&#xfe;" glyph-name="thorn" horiz-adv-x="483" d="M50 -206T50 -174V722Q50 754 110 754H138Q198 754 198 722V475Q213 500 239 515T297 531Q341 531 374 500T427 407T447 259Q447 131 403 62T280 -8Q231 -8 198 21V-174Q198 -206 138 -206H110Q50
-206 50 -174ZM269 109T283 144T297 262Q297 340 285 375T247 410Q218 410 198 370V123Q218 109 239 109Q269 109 283 144Z" />
<glyph unicode="&#xff;" glyph-name="ydieresis" horiz-adv-x="408" d="M404 525T404 503Q404 499 402 485L232 -185Q227 -206 177 -206H157Q101 -206 101 -185Q101 -178 104 -167L147 -11L10 480Q6 492 6 502Q6 525 56 525H99Q122 525 134 521T150 502L187 299Q193
263 203 187H207Q212 222 214 232Q220 280 224 299L264 504Q268 525 317 525H346Q404 525 404 503ZM83 581T69 588T54 613V677Q54 694 68 701T116 709Q149 709 163 702T178 677V613Q178 596 164 589T116 581Q83 581 69 588ZM259 581T245 588T230 613V677Q230 694
244 701T292 709Q325 709 339 702T354 677V613Q354 596 340 589T292 581Q259 581 245 588Z" />
<glyph unicode="&#x2013;" glyph-name="endash" horiz-adv-x="443" d="M39 212T32 224T25 262V269Q25 295 32 307T54 319H389Q404 319 411 307T418 269V262Q418 236 411 224T389 212H54Q39 212 32 224Z" />
<glyph unicode="&#x2014;" glyph-name="emdash" horiz-adv-x="886" d="M49 212T42 224T35 262V269Q35 295 42 307T64 319H822Q837 319 844 307T851 269V262Q851 236 844 224T822 212H64Q49 212 42 224Z" />
<glyph unicode="&#x2018;" glyph-name="quoteleft" horiz-adv-x="210" d="M46 478T31 490T16 522Q16 575 40 629T98 720T154 757Q170 757 184 752T199 735Q199 724 193 709Q191 703 180 676T162 610T155 522Q155 478 95 478H76Q46 478 31 490Z" />
<glyph unicode="&#x2019;" glyph-name="quoteright" horiz-adv-x="210" d="M48 478T34 483T19 500Q19 512 26 529Q43 572 53 609T63 713Q63 757 123 757H142Q172 757 187 745T202 713Q202 660 178 606T120 515T64 478Q48 478 34 483Z" />
<glyph unicode="&#x201a;" glyph-name="quotesinglbase" horiz-adv-x="210" d="M45 -125T31 -120T16 -103Q16 -91 23 -74Q40 -31 50 6T60 110Q60 154 120 154H139Q169 154 184 142T199 110Q199 57 175 3T117 -88T61 -125Q45 -125 31 -120Z" />
<glyph unicode="&#x201c;" glyph-name="quotedblleft" horiz-adv-x="348" d="M198 478T183 490T168 522Q168 575 192 629T250 720T306 757Q322 757 336 752T351 735Q351 724 345 709Q343 703 332 676T314 610T307 522Q307 478 247 478H228Q198 478 183 490ZM288
478T273 490T258 522Q258 575 282 629T340 720T396 757Q412 757 426 752T441 735Q441 724 435 709Q433 703 422 676T404 610T397 522Q397 478 337 478H318Q288 478 273 490Z" />
<glyph unicode="&#x201d;" glyph-name="quotedblright" horiz-adv-x="348" d="M194 478T180 483T165 500Q165 512 172 529Q189 572 199 609T209 713Q209 757 269 757H288Q318 757 333 745T348 713Q348 660 324 606T266 515T210 478Q194 478 180 483ZM285 478T271
483T256 500Q256 512 263 529Q280 572 290 609T300 713Q300 757 360 757H379Q409 757 424 745T439 713Q439 660 415 606T357 515T301 478Q285 478 271 483Z" />
<glyph unicode="&#x201e;" glyph-name="quotedblbase" horiz-adv-x="348" d="M174 -125T160 -120T145 -103Q145 -91 152 -74Q169 -31 179 6T189 110Q189 154 249 154H268Q298 154 313 142T328 110Q328 57 304 3T246 -88T190 -125Q174 -125 160 -120ZM265 -125T251
-120T236 -103Q236 -91 243 -74Q260 -31 270 6T280 110Q280 154 340 154H359Q389 154 404 142T419 110Q419 57 395 3T337 -88T281 -125Q265 -125 251 -120Z" />
<glyph unicode="&#x2022;" glyph-name="bullet" horiz-adv-x="298" d="M96 194T62 227T28 326Q28 391 62 425T149 459Q202 459 236 425T270 326Q270 262 236 228T149 194Q96 194 62 227Z" />
<glyph unicode="&#x2039;" glyph-name="guilsinglleft" horiz-adv-x="247" d="M142 47T133 61L31 214Q24 226 21 235T17 258Q17 271 20 280T31 302L133 455Q142 469 157 469Q173 469 195 455T218 425Q218 416 211 403L120 258L211 113Q218 100 218 90Q218 75 196
61T157 47Q142 47 133 61Z" />
<glyph unicode="&#x203a;" glyph-name="guilsinglright" horiz-adv-x="247" d="M67 47T45 61T23 90Q23 100 30 113L121 258L30 403Q23 416 23 425Q23 441 45 455T84 469Q99 469 108 455L210 302Q217 290 220 281T224 258Q224 245 221 236T210 214L108 61Q99 47
84 47Q67 47 45 61Z" />
</font>
</defs>
</svg>
