<?xml version="1.0" standalone="no"?>
<!DOCTYPE svg PUBLIC "-//W3C//DTD SVG 1.1//EN" "http://www.w3.org/Graphics/SVG/1.1/DTD/svg11.dtd">
<svg xmlns="http://www.w3.org/2000/svg">
<defs >
<font id="AsapCondensed" horiz-adv-x="456" ><font-face
    font-family="Asap Condensed"
    units-per-em="1000"
    panose-1="2 15 8 6 3 2 2 13 2 3"
    ascent="934"
    descent="-212"
    alphabetic="0" />
<glyph unicode=" " glyph-name="space" horiz-adv-x="137" />
<glyph unicode="!" glyph-name="exclam" horiz-adv-x="246" d="M73 222T63 229T55 254L99 668Q101 685 115 693T160 702H206Q234 702 249 694T260 670L166 254Q162 236 152 229T112 222H104Q73 222 63 229ZM7 -2T12 30L21 122Q23 138 38 146T83 154H116Q175 154
170 122L161 30Q159 14 144 6T99 -2H66Q7 -2 12 30Z" />
<glyph unicode="&quot;" glyph-name="quotedbl" horiz-adv-x="309" d="M331 464T324 471T316 494L313 670Q313 702 376 702H386Q451 702 443 670L402 494Q398 478 390 471T365 464H347Q331 464 324 471ZM226 464T219 471T211 494L208 670Q208 702 271 702H281Q346
702 338 670L297 494Q293 478 285 471T260 464H242Q226 464 219 471Z" />
<glyph unicode="#" glyph-name="numbersign" horiz-adv-x="514" d="M34 -2T34 21Q34 27 35 30L74 183H30Q16 183 10 191T4 217Q4 227 5 233L6 243Q9 269 17 281T41 293H101L129 403H81Q67 403 61 411T55 437Q55 447 56 453L57 463Q60 489 68 501T92 513H156L191
654Q200 686 246 686H264Q310 686 304 655L268 513H345L380 654Q389 686 435 686H453Q475 686 485 678T493 655L457 513H502Q516 513 522 505T528 479Q528 469 527 463L526 453Q523 427 515 415T491 403H430L402 293H455Q469 293 475 285T481 259Q481 249 480 243L479
233Q476 207 468 195T444 183H375L337 30Q326 -2 282 -2H264Q216 -2 223 28L262 183H187L148 30Q137 -2 94 -2H75Q34 -2 34 21ZM290 293L318 403H242L214 293H290Z" />
<glyph unicode="$" glyph-name="dollar" horiz-adv-x="460" d="M175 -75T172 -71T168 -55Q168 -48 173 -8Q125 -7 83 8Q56 18 37 33T17 66Q16 95 32 129T68 163Q75 163 87 156Q119 138 139 131T187 123L206 301Q156 326 128 345T77 403T55 504Q55 559 80 603T150
673T248 706L252 745Q253 765 274 765H291Q301 765 305 761T309 745L305 707Q367 702 402 680Q426 666 426 645Q426 618 413 587T381 555Q372 555 351 562Q314 575 292 576L274 412Q333 383 365 356T411 295T425 210Q425 121 373 64T230 -5L225 -55Q222 -75 203
-75H186Q175 -75 172 -71ZM233 568Q207 557 199 537T191 493Q191 461 220 440L233 568ZM289 152T289 215Q289 248 259 271L245 133Q289 152 289 215Z" />
<glyph unicode="%" glyph-name="percent" horiz-adv-x="686" d="M58 372T58 517Q58 600 96 654T214 708Q335 708 335 563Q335 481 297 427T180 372Q58 372 58 517ZM156 0T150 2T143 10Q143 14 146 18T150 26L488 682Q494 693 501 696T528 700H534Q551 700 557
698T563 690Q563 684 558 674L219 19Q214 8 206 4T178 0H172Q156 0 150 2ZM213 454T223 486T233 562Q233 595 227 608T206 622Q160 622 160 516Q160 481 166 468T186 454Q213 454 223 486ZM374 -8T374 137Q374 220 412 274T530 328Q651 328 651 183Q651 101 613
47T496 -8Q374 -8 374 137ZM529 74T539 106T549 182Q549 215 543 228T522 242Q476 242 476 136Q476 101 482 88T502 74Q529 74 539 106Z" />
<glyph unicode="&amp;" glyph-name="ampersand" horiz-adv-x="520" d="M78 -8T38 37T-3 168Q-3 252 22 303T106 383V387Q79 403 65 434T50 508Q50 601 98 654T236 708Q272 708 302 697T332 666Q328 632 314 608T289 584Q286 584 275 587T254 591Q225 591 213 565T201
502Q201 426 256 426H328L342 495Q346 514 360 522T400 531H435Q461 531 472 523T481 499L474 426H508Q521 426 527 418T533 392Q533 382 532 376L530 359Q527 333 519 321T496 309H462L444 147Q440 109 475 109Q490 109 499 112T511 115Q516 115 517 113T519 103Q519
81 512 44Q507 19 481 6T424 -8Q390 -8 362 2T320 33Q275 11 237 2T160 -8Q78 -8 38 37ZM219 109T240 113T295 130Q295 139 305 229Q307 246 309 266T314 309H228Q184 309 166 277T148 177Q148 142 159 126T197 109Q219 109 240 113Z" />
<glyph unicode="&apos;" glyph-name="quotesingle" horiz-adv-x="164" d="M78 464T71 471T63 494L60 670Q60 702 123 702H133Q198 702 190 670L149 494Q145 478 137 471T112 464H94Q78 464 71 471Z" />
<glyph unicode="(" glyph-name="parenleft" horiz-adv-x="249" d="M114 -208T104 -192Q10 -39 10 178Q10 233 16 287Q30 423 77 546T205 767Q218 783 234 783Q250 783 268 768T286 737Q284 724 279 717Q210 613 178 512T133 287Q125 215 125 156Q125 77 140 5T189
-142Q193 -151 191 -162Q190 -178 168 -193T130 -208Q114 -208 104 -192Z" />
<glyph unicode=")" glyph-name="parenright" horiz-adv-x="249" d="M5 -208T-14 -193T-32 -162Q-30 -151 -24 -142Q44 -39 76 62T121 287Q128 350 128 419Q128 498 114 570T66 717Q61 728 63 737Q64 753 86 768T125 783Q140 783 150 767Q198 690 221 595T244 394Q244
341 238 287Q223 151 176 28T49 -192Q36 -208 21 -208Q5 -208 -14 -193Z" />
<glyph unicode="*" glyph-name="asterisk" horiz-adv-x="299" d="M84 412T74 420T64 438V440Q64 448 75 462L130 534L70 564Q58 570 54 574T50 587Q52 601 60 612T82 624H86Q93 624 98 621L153 594L161 678Q162 694 170 701T194 708Q210 708 216 701T221 678L213
594L271 621Q277 624 287 624Q298 624 305 615T312 592Q312 582 307 576T288 564L221 534L261 462Q268 450 268 438Q266 429 254 421T231 412Q218 414 210 429L172 495L120 429Q107 414 95 412Q84 412 74 420Z" />
<glyph unicode="+" glyph-name="plus" horiz-adv-x="449" d="M162 0T152 7T143 32L159 182H49Q26 182 26 214L27 228L29 249Q31 270 39 279T61 289H170L186 443Q187 459 200 466T239 473H253Q280 473 291 466T300 443L284 289H395Q418 289 418 259L417 247L415
226Q413 202 406 192T383 182H273L257 30Q256 14 243 7T204 0H190Q162 0 152 7Z" />
<glyph unicode="," glyph-name="comma" horiz-adv-x="188" d="M-23 -125T-36 -120T-50 -105Q-50 -99 -47 -89T-41 -70Q-38 -61 -27 -35T-6 29T8 110Q13 154 71 154H91Q121 154 133 142T144 110Q138 57 110 3T47 -88T-9 -125Q-23 -125 -36 -120Z" />
<glyph unicode="-" glyph-name="hyphen" horiz-adv-x="254" d="M14 212T14 245L15 259L17 279Q19 300 27 309T49 319H218Q241 319 241 289L240 277L238 256Q236 232 229 222T206 212H37Q14 212 14 245Z" />
<glyph unicode="." glyph-name="period" horiz-adv-x="188" d="M20 -2T7 6T-4 30L5 122Q8 154 67 154H100Q130 154 143 146T154 122L145 30Q142 -2 83 -2H50Q20 -2 7 6Z" />
<glyph unicode="/" glyph-name="slash" horiz-adv-x="348" d="M-12 -79T-24 -73T-33 -56Q-27 -38 -27 -38L269 672Q276 688 292 695T336 702H343Q398 702 392 679Q389 668 385 658L90 -49Q83 -65 67 -72T23 -79H16Q-12 -79 -24 -73Z" />
<glyph unicode="0" glyph-name="zero" horiz-adv-x="459" d="M111 -8T70 61T29 269Q29 380 54 480T136 644T279 708Q366 708 407 639T449 432Q449 321 424 221T342 57T198 -8Q111 -8 70 61ZM246 109T265 176T292 334T301 491Q301 551 292 571T262 591Q231 591
212 524T184 369T176 213Q176 151 185 130T216 109Q246 109 265 176Z" />
<glyph unicode="1" glyph-name="one" horiz-adv-x="459" d="M26 0T20 8T14 34Q14 44 15 50L17 67Q19 93 27 105T52 117H159L206 566L100 551Q72 547 72 611Q72 628 73 635Q76 658 102 663L328 704Q341 704 354 695T366 676L307 117H391Q405 117 411 109T417 81L416
67L414 50Q411 24 403 12T379 0H40Q26 0 20 8Z" />
<glyph unicode="2" glyph-name="two" horiz-adv-x="459" d="M12 0T6 23T0 71Q0 83 1 88Q3 99 5 103L255 418Q284 454 298 479T312 530Q312 560 292 575T235 590Q205 590 183 582T135 558Q117 547 111 547Q96 547 80 570T64 613Q64 637 95 659T175 694T270 708Q362
708 410 665T458 548Q458 460 390 372L190 117H389Q403 117 409 109T415 83Q415 73 414 67L412 50Q409 24 401 12T377 0H20Q12 0 6 23Z" />
<glyph unicode="3" glyph-name="three" horiz-adv-x="459" d="M146 -8T100 0T22 27T-7 74Q-5 92 10 118T40 145Q46 145 56 141T69 135Q93 123 115 116T165 109Q214 109 241 141T268 225Q268 266 244 287T168 308H133Q119 308 113 316T107 342Q107 352 108 358L110
376Q113 402 121 414T145 426H171Q219 426 248 452T277 523Q277 554 260 572T211 590Q185 590 168 584T135 568T115 559Q101 559 87 584T73 630Q73 667 126 687T249 708Q335 708 382 668T430 556Q430 497 401 452T320 387V383Q369 363 394 324T419 231Q419 163
390 109T307 23T186 -8Q146 -8 100 0Z" />
<glyph unicode="4" glyph-name="four" horiz-adv-x="459" d="M244 -2T231 6T219 30L230 142H24Q13 142 5 169T-4 222Q-4 231 -3 235L0 246L261 678Q271 694 285 698T326 702H377Q437 702 434 670L391 259H418Q433 259 438 248T442 209L441 192Q438 142 405 142H378L367
30Q364 -2 303 -2H275Q244 -2 231 6ZM242 259L252 356Q257 410 276 493L272 494L138 259H242Z" />
<glyph unicode="5" glyph-name="five" horiz-adv-x="459" d="M118 -8T78 1T17 27T-2 64Q-1 73 10 92T36 127T61 143Q63 143 81 134T122 117T175 109Q225 109 248 141T271 235Q271 278 250 300T181 323H87Q69 323 62 329T54 349Q54 358 55 363L105 660Q109 681
119 690T151 700H418Q432 700 438 692T444 666Q444 656 443 650L440 623Q438 602 430 593T406 583H232L207 440H222Q320 440 371 399T422 260Q422 129 356 61T168 -8Q118 -8 78 1Z" />
<glyph unicode="6" glyph-name="six" horiz-adv-x="459" d="M158 -8T117 14T49 84T23 206Q23 356 88 469T240 643T388 704Q404 704 413 689T427 653T429 621Q427 610 425 606T414 600Q341 580 289 530T210 405Q251 428 293 428Q325 428 358 411T415 354T438 252Q438
177 410 118T328 26T206 -8Q158 -8 117 14ZM236 109T252 125T277 169T287 232Q287 269 273 290T232 311Q211 311 181 297Q176 279 173 251T169 198Q169 109 219 109Q236 109 252 125Z" />
<glyph unicode="7" glyph-name="seven" horiz-adv-x="459" d="M28 -2T28 15Q28 22 37 38L304 583H90Q76 583 70 591T64 617Q64 627 65 633L67 650Q70 676 78 688T102 700H447Q454 700 462 675T470 626Q470 609 464 597L179 18Q173 7 159 3T120 -2H83Q28 -2 28 15Z" />
<glyph unicode="8" glyph-name="eight" horiz-adv-x="459" d="M111 -8T64 42T16 174Q16 238 44 291T125 372Q97 397 81 428T65 504Q65 602 120 655T277 708Q362 708 407 665T452 549Q452 434 353 379Q389 354 409 317T430 222Q430 155 403 103T325 22T207 -8Q111
-8 64 42ZM285 459T297 483T309 533Q309 561 298 576T267 591Q243 591 228 572T213 524Q213 497 225 477T261 440Q285 459 297 483ZM245 109T261 137T278 202Q278 238 262 261T215 305Q167 263 167 183Q167 146 180 128T218 109Q245 109 261 137Z" />
<glyph unicode="9" glyph-name="nine" horiz-adv-x="459" d="M64 -7T55 22T45 76Q45 86 48 90T60 97Q132 120 184 169T263 293Q222 269 179 269Q147 269 114 287T58 345T35 450Q35 523 63 581T142 672T262 705Q355 705 402 648T450 477Q450 337 384 227T229 55T86
-7Q64 -7 55 22ZM263 386T291 401Q295 413 297 439T300 492Q300 542 287 565T250 588Q217 588 202 552T186 469Q186 430 200 408T241 386Q263 386 291 401Z" />
<glyph unicode=":" glyph-name="colon" horiz-adv-x="188" d="M29 369T34 401L43 493Q45 509 60 517T105 525H138Q197 525 192 493L183 401Q181 385 166 377T121 369H88Q29 369 34 401ZM-10 -2T-5 30L4 122Q6 138 21 146T66 154H99Q158 154 153 122L144 30Q142
14 127 6T82 -2H49Q-10 -2 -5 30Z" />
<glyph unicode=";" glyph-name="semicolon" horiz-adv-x="188" d="M28 369T33 401L42 493Q44 509 59 517T104 525H137Q196 525 191 493L182 401Q180 385 165 377T120 369H87Q28 369 33 401ZM-51 -125T-64 -120T-78 -105Q-78 -99 -75 -89T-69 -70Q-66 -61 -55 -35T-34
29T-20 110Q-15 154 43 154H63Q93 154 105 142T116 110Q110 57 82 3T19 -88T-37 -125Q-51 -125 -64 -120Z" />
<glyph unicode="&lt;" glyph-name="less" horiz-adv-x="448" d="M358 42T339 53L42 221Q24 231 27 258L29 277Q30 292 36 301T51 314L394 465Q413 473 421 473Q435 473 435 446Q435 435 434 429L433 419Q430 386 419 370T381 343L163 262L375 160Q389 153 395
145T401 119Q401 109 400 103L398 84Q394 42 371 42Q358 42 339 53Z" />
<glyph unicode="=" glyph-name="equal" horiz-adv-x="449" d="M35 267T35 299L36 313L38 334Q40 355 48 364T70 374H404Q427 374 427 344L426 332L424 311Q422 287 415 277T392 267H58Q35 267 35 299ZM16 87T16 119L17 133L19 154Q21 175 29 184T51 194H385Q408
194 408 164L407 152L405 131Q403 107 396 97T373 87H39Q16 87 16 119Z" />
<glyph unicode="&gt;" glyph-name="greater" horiz-adv-x="448" d="M17 47T14 59T10 98Q10 128 15 140T38 161L274 267L79 350Q58 360 51 373T44 417Q44 446 47 459T65 473Q72 473 90 465L402 314Q409 311 413 302T416 277L414 258Q411 231 391 221L67 58Q45 47
31 47Q17 47 14 59Z" />
<glyph unicode="?" glyph-name="question" horiz-adv-x="391" d="M112 222T102 228T92 251Q96 293 114 330T165 404L188 428Q221 463 237 485T253 529Q253 576 193 576Q173 576 157 570T124 554T103 545Q90 545 77 560T56 596T48 627Q52 663 109 685T227 708Q312
708 361 670T411 561Q411 499 386 460T308 373Q271 342 249 315T217 249Q211 234 199 228T161 222H138Q112 222 102 228ZM51 -2T56 30L65 122Q70 154 129 154H161Q222 154 217 122L208 30Q203 -2 144 -2H112Q51 -2 56 30Z" />
<glyph unicode="@" glyph-name="at" horiz-adv-x="792" d="M248 -123T186 -77T90 51T55 239Q55 369 106 476T245 646T441 708Q526 708 591 668T691 554T727 383Q727 294 699 220T622 102T513 58Q476 58 451 74T415 118Q401 91 376 75T320 58Q269 58 239 105T209
239Q209 318 229 379T284 474T365 508Q391 508 412 496T449 466Q455 488 464 495T499 503H511Q558 503 558 479L549 382Q546 346 539 266T532 174Q532 159 539 150T560 141Q587 141 610 174T648 262T663 380Q663 463 635 525T557 620T439 654Q351 654 278 599T162
449T119 237Q119 147 145 78T221 -30T334 -69Q365 -69 387 -63T436 -45Q452 -37 459 -37Q470 -37 470 -51Q470 -65 469 -73Q466 -99 420 -111T328 -123Q248 -123 186 -77ZM390 159T411 190Q416 314 429 392Q413 410 395 410Q366 410 350 368T334 247Q334 197 342
178T370 159Q390 159 411 190Z" />
<glyph unicode="A" glyph-name="A" horiz-adv-x="505" d="M-23 -2T-23 20Q-23 23 -20 31T-15 46L206 674Q216 702 270 702H326Q381 702 385 674L478 38Q479 35 479 28Q479 23 478 20Q476 -2 433 -2H384Q337 -2 333 19L320 141H164L124 19Q119 -2 75 -2H23Q-23
-2 -23 20ZM312 263L291 475Q287 525 287 551H282Q269 497 262 475L194 263H312Z" />
<glyph unicode="B" glyph-name="B" horiz-adv-x="539" d="M50 0T43 9T37 40L103 661Q105 681 115 690T144 700H313Q419 700 468 661T517 547Q517 483 490 439T408 366V362Q452 348 476 309T501 213Q501 103 439 52T252 0H70Q50 0 43 9ZM294 415Q334 415 350 438T367
511Q367 549 353 564T303 580H242L225 415H294ZM270 121Q318 121 335 144T352 223Q352 263 335 279T278 296H212L194 121H270Z" />
<glyph unicode="C" glyph-name="C" horiz-adv-x="459" d="M155 -8T99 57T42 258Q42 477 122 592T357 708Q403 708 443 697Q470 689 470 661Q470 654 469 651Q463 612 447 585T412 563Q382 573 350 573Q282 573 243 495T203 281Q203 205 228 167T308 128Q337 128
375 139Q378 140 385 140Q400 140 408 124T416 77Q416 43 409 29T381 7Q363 1 335 -3T277 -8Q155 -8 99 57Z" />
<glyph unicode="D" glyph-name="D" horiz-adv-x="577" d="M57 0T50 9T44 40L110 660Q112 681 122 690T151 700H321Q448 700 505 628T562 397Q562 220 490 110T267 0H77Q57 0 50 9ZM276 131Q343 131 373 211T403 398Q403 464 393 501T361 553T302 569H258L212 131H276Z" />
<glyph unicode="E" glyph-name="E" horiz-adv-x="457" d="M47 0T40 9T34 40L100 660Q102 681 112 690T141 700H436Q461 700 461 664L460 650L457 619Q453 569 422 569H246L231 424H387Q412 424 412 388L411 374L408 343Q404 293 373 293H217L200 131H377Q390 131
395 123T401 96L400 81L397 50Q393 0 363 0H67Q47 0 40 9Z" />
<glyph unicode="F" glyph-name="F" horiz-adv-x="423" d="M30 -2T33 30L100 660Q102 681 112 690T141 700H416Q441 700 441 664L440 650L436 619Q432 569 402 569H246L226 403H373Q398 403 398 370Q398 359 397 353L393 322Q389 295 382 284T359 272H212L189 30Q186
-2 128 -2H88Q30 -2 33 30Z" />
<glyph unicode="G" glyph-name="G" horiz-adv-x="552" d="M164 -8T104 60T43 268Q43 474 119 591T361 708Q405 708 445 698T509 672T534 639Q534 627 521 605T491 565T462 547Q458 547 442 554T405 567T355 573Q273 573 239 488T204 275Q204 195 228 162T298 128Q322
128 339 132L354 278H303Q279 278 279 311Q279 322 280 328L283 360Q286 386 294 398T317 410H482Q501 410 509 401T515 370L484 72Q482 49 450 31T371 2T283 -8Q164 -8 104 60Z" />
<glyph unicode="H" glyph-name="H" horiz-adv-x="601" d="M30 -2T33 30L101 670Q104 702 162 702H204Q261 702 258 670L232 423H403L429 670Q432 702 490 702H531Q589 702 586 670L518 30Q515 -2 457 -2H416Q358 -2 361 30L389 291H218L190 30Q187 -2 130 -2H88Q30
-2 33 30Z" />
<glyph unicode="I" glyph-name="I" horiz-adv-x="262" d="M25 -3T28 30L96 670Q99 703 157 703H199Q256 703 253 670L185 30Q182 -3 125 -3H83Q25 -3 28 30Z" />
<glyph unicode="J" glyph-name="J" horiz-adv-x="355" d="M41 -8T8 5T-25 38Q-22 67 -6 98T27 131Q31 131 44 128T74 125Q101 125 114 149T133 227L180 670Q183 703 240 703H282Q340 703 337 670L288 202Q266 -8 85 -8Q41 -8 8 5Z" />
<glyph unicode="K" glyph-name="K" horiz-adv-x="510" d="M30 -2T33 30L101 670Q104 702 162 702H202Q263 702 258 670L223 380H230L391 683Q397 694 409 698T444 702H499Q554 702 552 687Q552 680 544 666L358 353L481 34Q485 25 485 13Q483 -2 431 -2H373Q350
-2 338 2T321 17L224 333H218L190 30Q187 -2 128 -2H88Q30 -2 33 30Z" />
<glyph unicode="L" glyph-name="L" horiz-adv-x="408" d="M47 0T40 9T34 40L101 670Q104 702 162 702H202Q260 702 257 670L200 131H349Q363 131 369 123T375 95L374 81L370 50Q368 24 360 12T335 0H67Q47 0 40 9Z" />
<glyph unicode="M" glyph-name="M" horiz-adv-x="689" d="M53 -2T40 5T29 30L96 670Q98 687 112 694T157 702H186Q210 702 223 696T243 674L343 439Q348 426 357 391Q365 416 380 439L528 674Q538 689 552 695T591 702H624Q655 702 668 695T679 670L612 30Q610
13 596 6T550 -2H516Q486 -2 473 5T462 30L498 376Q501 400 511 431L507 432Q494 406 480 385L391 247Q382 234 373 229T349 223H332Q316 223 308 228T294 247L235 385Q229 400 219 432L215 431Q216 421 216 399Q216 384 215 376L179 30Q177 13 163 6T117 -2H83Q53
-2 40 5Z" />
<glyph unicode="N" glyph-name="N" horiz-adv-x="590" d="M23 -2T28 30L95 670Q98 702 156 702H182Q201 702 212 697T231 674L374 338Q388 305 400 260L404 262Q402 294 402 310Q402 321 404 341L441 670Q444 702 502 702H526Q584 702 581 670L514 30Q509 -2 452
-2H433Q413 -2 401 4T382 26L230 376Q223 391 218 411T210 440L204 437Q205 429 206 419T207 394Q207 385 205 369L168 30Q165 -2 106 -2H82Q23 -2 28 30Z" />
<glyph unicode="O" glyph-name="O" horiz-adv-x="599" d="M42 -8T42 283Q42 404 75 500T177 652T351 708Q577 708 577 418Q577 297 544 201T442 48T268 -8Q42 -8 42 283ZM356 123T388 210T420 419Q420 503 400 539T337 576Q265 576 233 490T200 283Q200 197 221
160T285 123Q356 123 388 210Z" />
<glyph unicode="P" glyph-name="P" horiz-adv-x="482" d="M30 -2T33 30L100 660Q102 681 112 690T144 700H287Q386 700 441 651T496 500Q496 388 434 325T267 262H212L187 30Q184 -2 124 -2H90Q30 -2 33 30ZM277 391Q309 391 327 420T345 491Q345 569 276 569H243L224
391H277Z" />
<glyph unicode="Q" glyph-name="Q" horiz-adv-x="599" d="M458 -159T166 15Q106 51 75 121T43 311Q43 484 113 596T334 708Q574 708 574 390Q574 243 527 150T388 26L387 22L539 -47Q551 -52 549 -65Q548 -74 535 -97T504 -140T472 -159Q458 -159 166 15ZM362
123T389 204T417 394Q417 493 395 534T329 576Q257 576 229 496T201 307Q201 207 223 165T291 123Q362 123 389 204Z" />
<glyph unicode="R" glyph-name="R" horiz-adv-x="513" d="M32 -2T35 30L102 660Q104 681 114 690T146 700H269Q498 700 498 500Q498 437 466 390T378 324V320Q403 308 418 284T443 210L478 38L480 26Q480 13 464 6T415 -1H380Q327 -1 323 26L290 216Q285 256 247
256H213L189 30Q186 -2 126 -2H92Q32 -2 35 30ZM281 401Q312 400 329 427T347 491Q347 532 330 550T278 569H246L229 402L281 401Z" />
<glyph unicode="S" glyph-name="S" horiz-adv-x="437" d="M116 -8T70 8Q43 18 24 33T4 66Q3 95 18 129T53 163Q61 163 77 155T102 141Q140 123 175 123Q208 123 232 140T256 195Q256 227 237 248T176 296Q137 322 112 344T70 403T52 492Q52 556 81 605T162 681T276
708Q308 708 342 701T399 680Q423 666 423 645Q423 618 410 587T378 555Q369 555 348 562Q310 576 285 576Q238 576 223 554T208 508Q208 476 226 457T267 423T297 403Q356 365 384 324T412 220Q412 114 347 53T170 -8Q116 -8 70 8Z" />
<glyph unicode="T" glyph-name="T" horiz-adv-x="454" d="M120 -2T123 30L180 569H69Q56 569 50 577T44 603Q44 613 45 619L49 650Q52 676 60 688T83 700H463Q477 700 483 692T489 666Q489 656 488 650L484 619Q481 593 473 581T449 569H337L280 30Q277 -2 219
-2H178Q120 -2 123 30Z" />
<glyph unicode="U" glyph-name="U" horiz-adv-x="583" d="M159 -8T101 40T43 176Q43 185 45 205L94 670Q97 702 155 702H195Q253 702 250 670L202 215Q201 210 201 201Q201 166 221 145T277 123Q318 123 342 146T372 215L420 670Q423 702 481 702H520Q578 702
575 670L526 205Q516 104 446 48T264 -8Q159 -8 101 40Z" />
<glyph unicode="V" glyph-name="V" horiz-adv-x="508" d="M145 -2T142 19L50 678Q49 690 64 696T110 702H148Q197 702 200 673L236 261Q241 201 241 142H245Q259 217 272 257L397 673Q406 702 455 702H492Q547 702 547 683Q547 679 545 673T542 662L319 19Q312
-2 264 -2H193Q145 -2 142 19Z" />
<glyph unicode="W" glyph-name="W" horiz-adv-x="752" d="M120 -2T117 21L47 674Q46 687 61 694T108 702H140Q200 702 201 671L209 302L211 152H215Q231 226 250 302L346 681Q349 693 362 697T400 702H440Q465 702 477 698T490 681L515 302Q522 183 522 149H526Q538
222 557 302L644 671Q651 702 711 702H734Q765 702 780 695T791 674L593 19Q587 -2 538 -2H482Q461 -2 448 3T434 21L403 332Q399 382 399 424Q399 465 402 499H398Q394 462 385 416T366 336L275 19Q271 9 257 4T222 -2H166Q120 -2 117 21Z" />
<glyph unicode="X" glyph-name="X" horiz-adv-x="506" d="M2 -2T-7 2T-16 16Q-16 24 -6 42L173 365L84 640Q74 670 74 683Q74 702 123 702H182Q205 702 218 698T234 683L279 447L380 682Q386 694 399 698T438 702H483Q540 702 540 683Q540 676 530 658L363 363L466
42Q471 24 471 17Q471 7 460 3T420 -2H365Q336 -2 325 3T310 27L257 272L140 18Q134 4 122 1T83 -2H25Q2 -2 -7 2Z" />
<glyph unicode="Y" glyph-name="Y" horiz-adv-x="484" d="M137 -2T140 30L169 302L52 657Q46 675 46 680Q46 690 61 696T108 702H159Q209 702 212 683L256 402L367 683Q371 694 385 698T424 702H466Q527 702 527 684Q527 674 517 657L326 299L297 30Q294 -2 235
-2H196Q137 -2 140 30Z" />
<glyph unicode="Z" glyph-name="Z" horiz-adv-x="507" d="M25 0T17 32T8 89Q8 96 14 106L313 569H108Q84 569 84 601Q84 612 85 619L89 650Q93 677 100 688T122 700H487Q499 700 506 667T514 608Q514 601 508 591L212 131H437Q462 131 462 98Q462 87 461 81L457
50Q453 23 446 12T423 0H37Q25 0 17 32Z" />
<glyph unicode="[" glyph-name="bracketleft" horiz-adv-x="239" d="M8 -138T1 -129T-5 -98L82 728Q84 749 94 758T123 768H229Q255 768 255 739L254 728L252 713Q251 692 243 683T219 673H189L114 -43H144Q170 -43 170 -72L169 -83L167 -98Q165 -119 158 -128T134
-138H28Q8 -138 1 -129Z" />
<glyph unicode="\" glyph-name="backslash" horiz-adv-x="348" d="M226 -79T212 -72T194 -49L45 658L43 670L44 679Q44 702 97 702H104Q133 702 147 695T165 672L313 -38Q315 -48 315 -56Q315 -79 262 -79H255Q226 -79 212 -72Z" />
<glyph unicode="]" glyph-name="bracketright" horiz-adv-x="239" d="M-6 -138T-6 -109L-5 -98L-3 -83Q-1 -62 7 -53T30 -43H61L136 673H105Q90 673 84 682T80 713L82 728Q84 749 92 758T115 768H221Q241 768 248 759T254 728L167 -98Q165 -119 155 -128T126 -138H20Q-6
-138 -6 -109Z" />
<glyph unicode="^" glyph-name="asciicircum" horiz-adv-x="360" d="M350 336T350 333Q349 326 340 322T316 318H301Q275 318 264 322T250 338L212 561L126 339Q122 327 111 323T81 318H65Q44 318 36 321T27 332Q27 340 31 348L169 656Q183 686 210 686H241Q268
686 274 656L348 348Q350 336 350 333Z" />
<glyph unicode="_" glyph-name="underscore" horiz-adv-x="427" d="M-55 -143T-55 -110Q-55 -99 -54 -93V-86Q-51 -60 -43 -48T-19 -36H383Q407 -36 407 -69Q407 -80 406 -86V-93Q403 -119 395 -131T371 -143H-31Q-55 -143 -55 -110Z" />
<glyph unicode="`" glyph-name="grave" horiz-adv-x="176" d="M141 572T127 578T102 602L61 665Q59 668 55 675T48 687T46 699Q46 710 57 714T99 718Q138 718 154 712T177 687L204 615Q210 599 210 590Q210 572 168 572Q141 572 127 578Z" />
<glyph unicode="a" glyph-name="a" horiz-adv-x="481" d="M88 -9T58 50T28 201Q28 283 48 358T110 482T216 531Q252 531 274 517T316 479Q322 499 327 507T345 520T381 525H393Q454 525 452 500L413 129V123Q413 108 426 108Q430 108 438 111T449 115Q458 115
458 101L456 84Q450 44 446 32Q440 14 414 3T357 -8Q283 -8 270 68Q230 -9 155 -9Q88 -9 58 50ZM235 112T248 127T269 166L285 325Q292 376 296 394Q278 414 255 414Q212 414 194 349T176 203Q176 112 217 112Q235 112 248 127Z" />
<glyph unicode="b" glyph-name="b" horiz-adv-x="482" d="M225 -8T195 17T155 79Q146 41 138 25T118 3T84 -2H72Q42 -2 32 5T23 30L96 722Q99 754 159 754H187Q247 754 244 722L220 501Q258 531 304 531Q448 531 448 298Q448 222 428 152T366 37T264 -8Q225 -8
195 17ZM267 113T282 172T298 301Q298 366 287 390T251 414Q231 414 210 399L191 224Q185 174 178 147Q198 113 228 113Q267 113 282 172Z" />
<glyph unicode="c" glyph-name="c" horiz-adv-x="408" d="M33 -8T33 201Q33 359 97 445T281 531Q334 531 376 512T419 465Q419 455 410 436T388 401T366 386Q360 386 347 394Q316 414 285 414Q237 414 211 360T184 209Q184 156 200 133T249 109Q270 109 287 115T323
130Q337 137 341 137Q355 137 366 112T378 66Q378 45 352 28T288 2T220 -8Q33 -8 33 201Z" />
<glyph unicode="d" glyph-name="d" horiz-adv-x="481" d="M99 -8T64 47T29 207Q29 347 77 439T228 531Q276 531 307 502L330 722Q333 754 393 754H421Q481 754 478 722L418 129V123Q418 108 431 108Q437 108 444 111T454 115Q463 115 463 101L461 84Q460 77 458
60T451 32Q446 15 420 4T363 -8Q327 -8 304 13T275 71Q257 37 226 15T159 -8Q99 -8 64 47ZM246 113T270 153L296 400Q278 414 256 414Q178 414 178 205Q178 157 187 135T217 113Q246 113 270 153Z" />
<glyph unicode="e" glyph-name="e" horiz-adv-x="454" d="M441 334T417 292T351 226T256 203Q212 203 182 209Q183 152 203 131T261 109Q291 109 313 118T358 141Q375 153 382 153Q399 153 399 105Q399 70 386 47Q371 20 324 6T232 -8Q131 -8 82 48T32 206Q32
349 93 440T275 531Q367 531 404 487T441 389Q441 334 417 292ZM219 292Q309 292 309 371Q309 392 298 403T267 414Q234 414 214 381T186 292H219Z" />
<glyph unicode="f" glyph-name="f" horiz-adv-x="286" d="M34 -2T37 30L77 406H65Q51 406 45 414T39 440Q39 450 40 456L42 473Q45 499 53 511T77 523H89L97 598Q115 760 255 760Q287 760 318 748T347 710Q345 697 333 668T308 638Q305 638 295 640T281 643Q264
643 256 633T245 600L237 523H270Q284 523 290 515T296 489Q296 479 295 473L293 456Q290 430 282 418T258 406H225L185 30Q182 -2 122 -2H94Q34 -2 37 30Z" />
<glyph unicode="g" glyph-name="g" horiz-adv-x="471" d="M452 525T452 500L408 82Q392 -69 340 -140T186 -212Q122 -212 77 -195T27 -150Q25 -134 25 -120Q25 -95 30 -78T46 -61Q51 -61 65 -69Q86 -80 106 -87T153 -95Q197 -95 223 -64T254 27L257 56Q239 32
216 18T165 4Q91 4 60 62T28 212Q28 347 75 439T219 531Q274 531 316 479Q322 499 327 507T345 520T381 525H393Q452 525 452 500ZM292 376T296 394Q278 414 256 414Q212 414 194 356T176 215Q176 171 186 148T219 125Q234 125 245 135T269 166L285 325Q292 376
296 394Z" />
<glyph unicode="h" glyph-name="h" horiz-adv-x="485" d="M319 -8T294 16T268 96Q268 112 269 120L292 358Q294 384 287 397T261 410Q235 410 206 377L170 30Q166 -2 108 -2H74Q15 -2 20 30L92 722Q94 738 109 746T154 754H188Q247 754 242 722L215 463Q240 493
273 512T347 531Q396 531 421 503T447 416Q447 406 445 382L418 129V123Q418 108 431 108Q437 108 444 111T454 115Q463 115 463 101L461 84Q460 78 458 61T451 32Q445 14 419 3T361 -8Q319 -8 294 16Z" />
<glyph unicode="i" glyph-name="i" horiz-adv-x="254" d="M81 -8T56 16T30 95Q30 111 31 120L69 493Q72 525 132 525H160Q221 525 217 492L177 130V123Q177 108 193 108Q199 108 207 111T218 115Q227 115 227 101L225 84Q224 78 222 61T215 32Q209 14 183 3T123
-8Q81 -8 56 16ZM80 574T83 606L91 684Q94 716 169 716Q242 716 239 684L231 606Q228 574 154 574Q80 574 83 606Z" />
<glyph unicode="j" glyph-name="j" horiz-adv-x="249" d="M-34 -212T-57 -202T-80 -167Q-80 -148 -69 -120T-42 -91Q-37 -91 -28 -93T-12 -95Q1 -95 7 -85T16 -52L73 493Q78 525 137 525H165Q226 525 221 493L164 -50Q156 -129 115 -170T13 -212Q-34 -212 -57
-202ZM82 574T85 606L93 684Q96 716 171 716Q244 716 241 684L233 606Q230 574 156 574Q82 574 85 606Z" />
<glyph unicode="k" glyph-name="k" horiz-adv-x="452" d="M30 -2T35 30L107 722Q109 738 124 746T169 754H201Q231 754 244 746T255 722L212 306H217L323 506Q330 519 337 522T364 525H415Q469 525 467 508Q465 500 458 487L340 278L424 34Q428 22 428 14Q426
-2 374 -2H331Q312 -2 305 2T294 17L215 246H205L183 30Q181 14 166 6T121 -2H89Q30 -2 35 30Z" />
<glyph unicode="l" glyph-name="l" horiz-adv-x="270" d="M38 -8T38 113Q38 122 40 144L101 722Q104 754 164 754H192Q252 754 249 722L188 142Q187 138 187 131Q187 119 192 114T213 108Q221 108 230 111T244 115Q253 115 253 101L251 84Q250 78 248 61T241 32Q235
15 209 4T153 -8Q38 -8 38 113Z" />
<glyph unicode="m" glyph-name="m" horiz-adv-x="720" d="M696 115T696 101L694 84Q693 78 691 61T684 32Q678 14 652 3T594 -8Q552 -8 527 17T501 100Q501 108 503 130L526 358L527 372Q527 391 520 400T494 409Q467 409 442 382L405 30Q402 -2 344 -2H310Q252
-2 255 30L290 358Q291 364 291 373Q291 391 284 400T258 409Q232 409 206 377L169 30Q168 14 153 6T109 -2H74Q17 -2 20 30Q29 129 47 301Q59 401 59 440Q59 458 58 469T58 487Q60 505 103 513T177 522Q207 522 207 477Q207 470 205 452Q231 486 267 508T347 531Q426
531 441 461Q466 491 502 511T583 531Q680 531 680 418Q680 408 678 382L651 129V123Q651 108 664 108Q668 108 676 111T687 115Q696 115 696 101Z" />
<glyph unicode="n" glyph-name="n" horiz-adv-x="482" d="M465 115T465 101L463 84Q462 78 460 61T453 32Q447 14 421 3T364 -8Q322 -8 296 17T270 100Q270 108 272 130L295 358L296 372Q296 391 289 400T263 409Q236 409 210 377L173 30Q172 14 157 6T113 -2H78Q21
-2 24 30L58 349Q63 402 63 440Q63 458 62 469T62 487Q64 505 107 513T181 522Q195 522 202 515T210 480Q210 463 209 451Q235 485 271 508T351 531Q400 531 425 504T450 422Q450 414 448 392L420 129V123Q420 108 433 108Q437 108 445 111T456 115Q465 115 465
101Z" />
<glyph unicode="o" glyph-name="o" horiz-adv-x="477" d="M125 -8T78 50T31 222Q31 358 88 444T264 531Q353 531 399 474T446 303Q446 168 389 80T212 -8Q125 -8 78 50ZM265 109T281 167T298 329Q298 373 287 393T246 414Q212 414 196 356T179 195Q179 150 190
130T232 109Q265 109 281 167Z" />
<glyph unicode="p" glyph-name="p" horiz-adv-x="484" d="M387 531T420 475T454 309Q454 226 433 154T368 37T256 -8Q205 -8 176 21L156 -174Q153 -206 92 -206H64Q33 -206 20 -198T8 -174L62 347Q67 395 67 431Q67 449 66 466T65 490Q68 505 108 513T175 522Q217
522 213 459Q232 491 262 511T329 531Q387 531 420 475ZM268 109T286 170T305 310Q305 364 296 387T267 410Q237 410 213 370L187 123Q205 109 225 109Q268 109 286 170Z" />
<glyph unicode="q" glyph-name="q" horiz-adv-x="481" d="M431 525T445 517T457 491L387 -174Q382 -206 323 -206H295Q234 -206 239 -174L259 22Q223 -8 174 -8Q104 -8 67 44T30 195Q30 283 50 360T113 484T216 531Q251 531 279 512T318 461Q329 498 342 511T378
525H400Q431 525 445 517ZM291 327T300 367Q281 410 252 410Q212 410 196 345T179 194Q179 147 190 128T226 109Q249 109 270 124L285 269Q291 327 300 367Z" />
<glyph unicode="r" glyph-name="r" horiz-adv-x="337" d="M25 -2T28 30L62 349Q66 385 66 415Q66 445 63 464L62 484Q62 503 97 512T180 522Q198 522 204 508T211 477T213 455Q230 490 251 510T301 531Q331 531 340 515T347 477Q345 458 333 423T312 387Q307 387
292 391T266 395Q247 395 232 381T209 345L176 30Q173 -2 113 -2H85Q25 -2 28 30Z" />
<glyph unicode="s" glyph-name="s" horiz-adv-x="353" d="M101 -8T68 0T15 22T-5 50Q-5 73 11 103T42 134Q49 134 71 125Q107 108 134 108Q185 108 185 146Q185 162 175 173T141 200Q121 214 119 216Q70 254 52 286T33 364Q33 439 82 485T214 531Q260 531 300
517T340 476Q340 457 325 427T296 396Q288 396 271 403Q236 416 214 416Q190 416 177 406T164 376Q164 361 175 351T202 330T226 314Q276 280 298 245T321 163Q321 87 273 40T139 -8Q101 -8 68 0Z" />
<glyph unicode="t" glyph-name="t" horiz-adv-x="298" d="M46 -8T46 115Q46 133 47 143L74 406H62Q35 406 35 440Q35 450 36 456L38 473Q41 500 49 511T74 523H89L109 618Q115 650 170 650H188Q249 650 244 613L234 523H270Q284 523 290 515T296 489Q296 479 295
473L293 456Q290 430 282 418T258 406H222L194 142Q192 123 198 116T219 108Q230 108 240 111T255 115Q264 115 264 101L262 84Q261 77 259 62T252 32Q246 14 221 3T163 -8Q46 -8 46 115Z" />
<glyph unicode="u" glyph-name="u" horiz-adv-x="482" d="M458 115T458 101L456 84Q455 78 453 61T446 32Q440 14 415 3T359 -8Q276 -8 269 70Q243 35 209 13T132 -9Q81 -9 55 19T28 101Q28 110 30 130L68 493Q71 525 129 525H163Q221 525 218 493L183 163L182
150Q182 131 189 122T215 113Q242 113 268 145L305 493Q306 509 321 517T365 525H400Q457 525 454 493L413 129V123Q413 108 426 108Q430 108 438 111T449 115Q458 115 458 101Z" />
<glyph unicode="v" glyph-name="v" horiz-adv-x="412" d="M135 -2T123 3T108 21L30 497Q26 525 87 525H126Q175 525 176 504L190 280Q197 182 197 136H201Q215 207 233 280L289 504Q294 525 345 525H385Q434 525 434 503Q434 494 430 485L260 19Q252 -2 205 -2H157Q135
-2 123 3Z" />
<glyph unicode="w" glyph-name="w" horiz-adv-x="616" d="M89 -2T86 21L41 487Q39 507 52 516T99 525H110Q144 525 158 519T173 497L177 287Q178 243 175 166H179L183 186Q198 257 210 298L272 504Q276 517 285 521T323 525H350Q376 525 389 520T403 501L421 300Q424
260 424 199V166H428Q429 179 452 286L499 499Q502 513 513 519T552 525H572Q628 525 628 501Q628 493 625 484L482 19Q479 9 465 4T429 -2H397Q349 -2 347 19L322 282Q321 290 321 305L322 349H318Q310 307 302 282L222 19Q216 -2 169 -2H136Q89 -2 86 21Z" />
<glyph unicode="x" glyph-name="x" horiz-adv-x="404" d="M-26 0T-26 14Q-26 23 -14 41L130 276L38 481Q31 498 32 507Q35 525 93 525H126Q152 525 164 522T180 506L207 392Q208 390 213 357Q215 363 218 373T225 393L275 506Q280 519 293 522T333 525H369Q398
525 413 520T426 507Q425 500 414 481L275 254L370 41Q377 24 377 18Q377 10 365 5T339 0H280Q251 0 241 2T227 17L198 142Q197 144 192 174Q190 168 187 159T181 142L126 17Q121 4 110 2T70 0H12Q-26 0 -26 14Z" />
<glyph unicode="y" glyph-name="y" horiz-adv-x="408" d="M427 525T424 503Q424 499 420 485L180 -185Q172 -206 123 -206H103Q75 -206 61 -201T49 -185Q49 -179 54 -167L112 -13L28 480Q25 495 26 502Q27 513 40 519T78 525H121Q144 525 156 521T170 502L185
289Q187 263 189 177H193L222 289L284 504Q291 525 339 525H368Q427 525 424 503Z" />
<glyph unicode="z" glyph-name="z" horiz-adv-x="405" d="M16 0T9 23T2 71Q2 83 7 90L210 406H78Q53 406 53 442L54 456L56 473Q59 499 67 511T90 523H368Q378 523 387 496T394 446Q394 439 387 427L187 117H336Q361 117 361 81L360 67L358 50Q355 24 347 12T324
0H29Q16 0 9 23Z" />
<glyph unicode="{" glyph-name="braceleft" horiz-adv-x="249" d="M90 -138T66 -111T42 -39Q42 -28 43 -22L63 163Q65 185 65 193Q65 244 37 259Q23 268 17 279T13 309L14 321Q16 340 24 351T49 371Q69 381 79 403T95 467L114 652Q119 703 150 735T225 768H264Q280
768 286 759T290 728L289 714Q285 675 258 674H260Q244 674 237 666T228 638L208 451Q203 401 185 366T137 315Q181 288 181 209Q181 201 179 179L160 -8L159 -19Q159 -44 180 -44H181Q206 -46 206 -74L205 -84L203 -98Q201 -119 193 -128T169 -138H130Q90 -138
66 -111Z" />
<glyph unicode="|" glyph-name="bar" horiz-adv-x="200" d="M186 768T197 761T207 738L118 -108Q117 -124 104 -131T65 -138H50Q24 -138 13 -131T3 -108L92 738Q93 754 106 761T145 768H160Q186 768 197 761Z" />
<glyph unicode="}" glyph-name="braceright" horiz-adv-x="249" d="M-20 -138T-26 -129T-30 -98L-28 -84Q-26 -64 -18 -55T4 -44H5Q17 -44 24 -35T33 -8L52 179Q57 229 75 264T124 315Q102 329 91 356T79 421Q79 429 81 451L101 638Q103 658 98 666T76 674H77Q55
675 55 702L56 714L57 728Q59 749 67 758T91 768H130Q170 768 194 741T218 669Q218 658 217 652L198 467Q196 441 196 433Q196 408 202 393T224 371Q238 362 243 351T247 321L246 309Q244 290 236 279T212 259Q191 249 181 227T166 163L146 -22Q141 -73 110 -105T35
-138H-4Q-20 -138 -26 -129Z" />
<glyph unicode="~" glyph-name="asciitilde" horiz-adv-x="438" d="M62 207T50 214T37 230Q37 237 41 249Q53 285 81 308T148 331Q165 331 182 328T216 319Q264 305 299 305Q317 305 328 311T352 329T369 340Q377 340 390 332T404 315Q404 307 397 291Q364 217
291 217Q267 217 247 221T200 232Q161 243 141 243Q126 243 114 237T88 218Q75 207 70 207Q62 207 50 214Z" />
<glyph unicode="&#xa0;" glyph-name="uni00A0" horiz-adv-x="137" />
<glyph unicode="&#xa1;" glyph-name="exclamdown" horiz-adv-x="246" d="M75 369T80 401L89 493Q91 509 106 517T151 525H184Q243 525 238 493L229 401Q227 385 212 377T167 369H134Q75 369 80 401ZM15 -180T0 -172T-11 -149L84 268Q88 286 97 293T137 300H146Q176
300 186 293T194 268L150 -148Q147 -180 89 -180H43Q15 -180 0 -172Z" />
<glyph unicode="&#xa2;" glyph-name="cent" horiz-adv-x="420" d="M325 404T317 407L286 116Q303 123 318 130Q332 137 336 137Q350 137 361 112T373 66Q373 44 345 27T274 -1L268 -56Q265 -81 239 -81H234Q208 -81 211 -56L216 -8H215Q28 -8 28 201Q28 358 92
443T273 531L276 562Q279 587 305 587H310Q336 587 333 562L329 525Q366 517 390 501T414 465Q414 455 405 436T383 401T361 386Q355 386 342 394Q325 404 317 407ZM179 121T229 110L260 411Q221 400 200 348T179 209Q179 121 229 110Z" />
<glyph unicode="&#xa3;" glyph-name="sterling" horiz-adv-x="470" d="M22 0T14 9T7 40L9 59Q10 68 17 75T40 94Q66 114 80 131T97 175L111 311H78Q65 311 58 325T53 361L55 378Q60 428 90 428H123L131 502Q153 708 354 708Q391 708 421 698T448 663Q445 637 429
613T400 588Q398 588 380 592T348 596Q317 596 300 575T277 507L268 428H338Q351 428 357 414T362 378L360 361Q358 340 348 326T325 311H256L250 251Q245 199 230 169T185 117H372Q386 117 392 109T398 83Q398 73 397 67L395 50Q392 24 384 12T360 0H43Q22 0 14
9Z" />
<glyph unicode="&#xa4;" glyph-name="currency" horiz-adv-x="470" d="M75 72T63 84L36 114Q27 125 27 136Q27 151 42 164L72 191Q60 226 60 265Q60 334 95 390L66 422Q56 434 56 445Q56 459 71 472L104 502Q118 514 131 514Q144 514 154 502L178 476Q218 500
260 500Q304 500 340 475L369 502Q383 514 396 514Q409 514 419 502L446 472Q455 462 455 447Q455 434 441 422L403 388Q416 351 416 313Q416 253 385 194L411 164Q420 153 420 142Q420 128 405 114L372 84Q360 72 346 72Q331 72 322 84L305 105Q263 78 216 78Q171
78 134 103L113 84Q101 72 87 72Q75 72 63 84ZM255 192T275 217T300 289Q301 297 301 311Q301 347 287 366T248 386Q220 386 200 361T175 289Q174 282 174 268Q174 231 189 212T228 192Q255 192 275 217Z" />
<glyph unicode="&#xa5;" glyph-name="yen" horiz-adv-x="490" d="M532 702T532 684Q532 674 522 657L368 369H440Q460 369 460 345L459 335L458 326Q456 308 450 301T431 294H330L325 239H425Q445 239 445 215L444 205L443 196Q441 178 435 171T416 164H316L302
30Q299 -2 240 -2H201Q142 -2 145 30L159 164H52Q29 164 33 198L34 207Q36 224 42 231T61 239H167L173 294H67Q44 294 48 328L49 337Q51 354 57 361T76 369H152L57 657Q51 675 51 680Q51 690 66 696T113 702H164Q214 702 217 683L261 402L372 683Q376 694 390 698T429
702H471Q532 702 532 684Z" />
<glyph unicode="&#xa6;" glyph-name="brokenbar" horiz-adv-x="200" d="M187 770T197 762T208 738Q208 732 193 588L174 412Q171 380 120 380H105Q58 380 58 407Q58 417 93 738Q96 770 146 770H161Q187 770 197 762ZM133 250T143 243T153 218Q151 198 147 155T137
62L119 -108Q116 -140 66 -140H51Q24 -140 14 -133T4 -108Q4 -94 20 45L38 218Q41 250 92 250H107Q133 250 143 243Z" />
<glyph unicode="&#xa7;" glyph-name="section" horiz-adv-x="355" d="M85 -8T45 8T5 49Q5 62 15 83T39 120T62 137Q66 137 78 130T102 118T129 113Q147 113 157 121T167 143Q167 157 157 166T124 186L104 197Q60 223 42 254T23 328Q23 369 38 403T84 462Q56 494
56 545Q56 592 79 629T144 686T237 707Q282 707 322 693T362 653Q362 634 343 601T313 568Q310 568 289 577T245 587Q228 587 217 580T206 559Q206 544 218 535T245 518T266 507Q308 485 329 454T351 377Q351 336 335 300T290 241Q317 208 317 162Q317 112 293
74T227 14T133 -8Q85 -8 45 8ZM225 320T225 344Q225 365 211 376T168 398Q150 385 150 358Q150 337 164 326T206 304Q225 320 225 344Z" />
<glyph unicode="&#xa8;" glyph-name="dieresis" horiz-adv-x="300" d="M63 581T49 588T37 613L44 677Q46 694 61 701T109 709Q142 709 156 702T168 677L161 613Q159 596 144 589T96 581Q63 581 49 588ZM239 581T225 588T213 613L220 677Q222 694 237 701T285 709Q318
709 332 702T344 677L337 613Q335 596 320 589T272 581Q239 581 225 588Z" />
<glyph unicode="&#xa9;" glyph-name="copyright" horiz-adv-x="592" d="M225 -8T161 32T58 154T20 350Q20 465 58 546T160 667T306 708Q387 708 451 668T553 546T591 350Q591 235 554 154T452 33T306 -8Q225 -8 161 32ZM368 56T417 88T496 186T525 350Q525 447
496 513T418 612T306 644Q244 644 194 612T115 514T86 350Q86 253 115 187T194 88T306 56Q368 56 417 88ZM241 152T206 201T171 353Q171 552 316 552Q347 552 379 541T411 513Q411 500 398 480T375 460Q373 460 359 469T314 478Q258 478 258 353Q258 225 314 225Q342
225 360 236T381 248Q394 248 404 229T414 199Q414 184 396 173T353 157T314 152Q241 152 206 201Z" />
<glyph unicode="&#xaa;" glyph-name="ordfeminine" horiz-adv-x="281" d="M89 438T73 467T56 543Q56 608 81 658T155 708Q186 708 205 682Q210 696 215 700T238 705H249Q280 705 278 693L259 507V504Q259 497 265 497Q268 497 271 498T277 500Q281 500 281 494Q281
477 275 459Q272 450 260 445T231 439Q196 439 189 484Q168 438 125 438Q89 438 73 467ZM166 503T174 510T186 528L194 604Q195 614 198 637Q191 646 175 646Q151 646 142 616T132 546Q132 503 156 503Q166 503 174 510Z" />
<glyph unicode="&#xab;" glyph-name="guillemotleft" horiz-adv-x="471" d="M133 46T124 61L31 214Q20 233 20 252Q20 273 47 302L186 455Q198 469 217 469Q231 469 248 455T266 425Q266 413 251 398L120 249L205 99Q210 87 209 80Q207 70 186 58T147 46Q133 46
124 61ZM332 46T323 61L228 214Q218 230 218 251Q218 270 246 302L385 455Q397 469 416 469Q430 469 447 455T465 425Q465 413 450 398L319 249L404 99Q409 87 408 80Q406 70 385 58T346 46Q332 46 323 61Z" />
<glyph unicode="&#xac;" glyph-name="logicalnot" horiz-adv-x="449" d="M318 72T307 80T297 104L312 242H45Q22 242 22 274L23 288L25 309Q27 330 35 339T57 349H398Q419 349 427 340T434 309L412 104Q411 89 397 81T361 72H341Q318 72 307 80Z" />
<glyph unicode="&#xad;" glyph-name="uni00AD" horiz-adv-x="254" d="M14 212T14 245L15 259L17 279Q19 300 27 309T49 319H218Q241 319 241 289L240 277L238 256Q236 232 229 222T206 212H37Q14 212 14 245Z" />
<glyph unicode="&#xae;" glyph-name="registered" horiz-adv-x="591" d="M225 -8T161 32T58 154T20 350Q20 465 58 546T160 667T306 708Q387 708 451 668T553 546T591 350Q591 235 554 154T452 33T306 -8Q225 -8 161 32ZM368 56T417 88T496 186T525 350Q525 447
496 513T418 612T306 644Q244 644 194 612T115 514T86 350Q86 253 115 187T194 88T306 56Q368 56 417 88ZM198 156T198 174V526Q198 548 218 548H310Q368 548 394 522T420 443Q420 412 406 389T368 354V350Q375 343 383 330T397 302L436 178Q438 173 438 167Q438
156 408 156H381Q355 156 351 168L315 277Q310 298 306 304T286 310H284V174Q284 156 252 156H230Q198 156 198 174ZM314 384Q321 384 327 398T333 432Q333 452 327 463T311 475H284V384H314Z" />
<glyph unicode="&#xaf;" glyph-name="overscore" horiz-adv-x="289" d="M39 597T39 625Q39 633 40 637L42 652Q45 673 52 682T75 692H305Q319 692 325 686T331 665Q331 657 330 652L328 637Q325 615 318 606T295 597H65Q39 597 39 625Z" />
<glyph unicode="&#xb0;" glyph-name="degree" horiz-adv-x="276" d="M117 443T91 471T64 560Q64 628 94 668T182 708Q225 708 251 679T278 590Q278 522 248 483T160 443Q117 443 91 471ZM190 505T201 529T212 586Q212 615 202 630T174 646Q150 646 139 622T128
564Q128 535 138 520T166 505Q190 505 201 529Z" />
<glyph unicode="&#xb1;" glyph-name="plusminus" horiz-adv-x="449" d="M176 140T166 147T157 172L172 312H62Q39 312 39 344L40 358L42 379Q44 400 52 409T74 419H183L199 573Q200 589 213 596T252 603H266Q294 603 304 596T313 571L297 419H409Q432 419 432
389L431 377L429 356Q427 332 420 322T397 312H286L271 170Q270 154 257 147T218 140H204Q176 140 166 147ZM7 0T7 32L8 46L10 67Q12 88 20 97T42 107H376Q399 107 399 77L398 65L396 44Q394 20 387 10T364 0H30Q7 0 7 32Z" />
<glyph unicode="&#xb2;" glyph-name="uni00B2" horiz-adv-x="280" d="M42 350T38 363T34 390Q34 399 35 404T42 415L179 588Q194 608 204 625T214 661Q214 678 203 686T172 694Q150 694 128 682T102 670Q90 670 81 683T72 708Q72 733 110 748T193 764Q246 764
274 739T303 672Q303 640 290 612T251 552L143 418H263Q272 418 275 412T278 389L277 379Q275 363 271 357T258 350H48Q42 350 38 363Z" />
<glyph unicode="&#xb3;" glyph-name="uni00B3" horiz-adv-x="280" d="M97 343T65 354T33 388Q33 399 45 417T67 436Q70 436 80 429T102 417T131 412Q159 412 176 429T194 477Q194 529 136 529H115Q106 529 103 536T101 558L102 569Q105 598 122 598H138Q166 598
182 613T199 655Q199 673 189 683T160 694Q138 694 123 685T104 676Q97 676 89 691T80 718Q80 740 112 752T189 764Q234 764 261 740T289 675Q289 640 272 612T224 572V570Q282 547 282 481Q282 418 241 381T132 343Q97 343 65 354Z" />
<glyph unicode="&#xb4;" glyph-name="acute" horiz-adv-x="176" d="M34 572T34 585Q34 591 37 598T46 615L88 687Q99 705 116 711T173 718Q201 718 211 715T222 703Q222 696 217 688T199 665L145 602Q130 584 116 578T74 572Q34 572 34 585Z" />
<glyph unicode="&#xb5;" glyph-name="uni00B5" horiz-adv-x="453" d="M432 115T433 113T435 102Q435 88 432 68T428 44Q424 18 396 5T332 -8Q254 -8 243 72Q222 42 197 22T148 -3L149 -37Q149 -102 138 -174Q136 -190 122 -198T78 -206H43Q-15 -206 -12 -174L58
493Q61 525 120 525H155Q184 525 197 517T208 493L175 176Q173 154 173 147Q173 130 178 122T196 114Q216 114 228 132T244 172L277 493Q279 509 294 517T339 525H373Q430 525 427 493L389 133Q389 109 402 109Q406 109 416 112T429 115Q432 115 433 113Z" />
<glyph unicode="&#xb6;" glyph-name="paragraph" horiz-adv-x="466" d="M162 -173T165 -151L204 224Q159 231 124 262T68 341T48 446Q48 513 75 571T153 664T269 700H486Q507 700 504 676L502 662Q500 649 495 644T480 638H450L367 -151Q364 -173 340 -173H326Q303
-173 305 -151L388 638H310L227 -151Q224 -173 200 -173H186Q162 -173 165 -151Z" />
<glyph unicode="&#xb7;" glyph-name="middot" horiz-adv-x="214" d="M86 289T68 306T49 353Q49 389 69 409T122 429Q149 429 167 412T186 366Q186 332 167 311T113 289Q86 289 68 306Z" />
<glyph unicode="&#xb8;" glyph-name="cedilla" horiz-adv-x="207" d="M137 -57T152 -72T167 -112Q167 -159 133 -185T38 -212Q8 -212 -19 -201T-46 -173Q-46 -160 -36 -147T-14 -134Q-7 -134 6 -139Q9 -140 21 -143T48 -147Q85 -147 85 -118Q85 -107 78 -102T55
-90Q47 -87 41 -84T35 -76Q35 -68 64 10H133L110 -52Q137 -57 152 -72Z" />
<glyph unicode="&#xb9;" glyph-name="uni00B9" horiz-adv-x="280" d="M117 349T119 368L152 683L88 671Q71 669 71 705Q71 723 75 729T88 738L227 763H230Q237 763 242 759T247 749L207 368Q205 349 171 349H152Q117 349 119 368Z" />
<glyph unicode="&#xba;" glyph-name="ordmasculine" horiz-adv-x="292" d="M66 441T66 553Q66 628 98 668T189 708Q240 708 266 679T292 593Q292 519 261 480T170 441Q66 441 66 553ZM195 503T205 525T215 588Q215 646 182 646Q163 646 153 624T143 561Q143 503
177 503Q195 503 205 525Z" />
<glyph unicode="&#xbb;" glyph-name="guillemotright" horiz-adv-x="471" d="M138 469T147 454L242 301Q252 285 252 264Q252 245 224 213L85 60Q73 46 54 46Q40 46 23 60T5 90Q5 102 20 117L151 266L66 416Q61 428 62 435Q64 445 85 457T124 469Q138 469 147
454ZM337 469T346 454L439 301Q450 282 450 263Q450 242 423 213L284 60Q272 46 253 46Q239 46 222 60T204 90Q204 102 219 117L350 266L265 416Q260 428 261 435Q263 445 284 457T323 469Q337 469 346 454Z" />
<glyph unicode="&#xbc;" glyph-name="onequarter" horiz-adv-x="675" d="M343 289T345 308L378 623L314 611Q297 609 297 645Q297 663 301 669T314 678L453 703H456Q463 703 468 699T473 689L433 308Q431 289 397 289H378Q343 289 345 308ZM506 -1T507 18L514
83H393Q385 83 380 99T374 131Q374 140 378 147L529 397Q534 406 544 408T570 411H600Q635 411 633 392L608 152H625Q643 152 640 122L639 112Q636 83 617 83H601L594 18Q593 -1 557 -1H541Q506 -1 507 18ZM523 152L529 208Q536 267 548 308L544 309L454 152H523ZM132
0T126 2T119 10Q119 14 122 18T126 26L464 682Q470 693 477 696T504 700H510Q527 700 533 698T539 690Q539 684 534 674L195 19Q190 8 182 4T154 0H148Q132 0 126 2Z" />
<glyph unicode="&#xbd;" glyph-name="onehalf" horiz-adv-x="675" d="M343 289T345 308L378 623L314 611Q297 609 297 645Q297 663 301 669T314 678L453 703H456Q463 703 468 699T473 689L433 308Q431 289 397 289H378Q343 289 345 308ZM387 0T383 13T379 40Q379
49 380 54T387 65L524 238Q539 258 549 275T559 311Q559 328 548 336T517 344Q495 344 473 332T447 320Q435 320 426 333T417 358Q417 383 455 398T538 414Q591 414 619 389T648 322Q648 290 635 262T596 202L488 68H608Q617 68 620 62T623 39L622 29Q620 13 616
7T603 0H393Q387 0 383 13ZM117 0T111 2T104 10Q104 14 107 18T111 26L449 682Q455 693 462 696T489 700H495Q512 700 518 698T524 690Q524 684 519 674L180 19Q175 8 167 4T139 0H133Q117 0 111 2Z" />
<glyph unicode="&#xbe;" glyph-name="threequarters" horiz-adv-x="675" d="M327 283T295 294T263 328Q263 339 275 357T297 376Q300 376 310 369T332 357T361 352Q389 352 406 369T424 417Q424 469 366 469H345Q336 469 333 476T331 498L332 509Q335 538 352
538H368Q396 538 412 553T429 595Q429 613 419 623T390 634Q368 634 353 625T334 616Q327 616 319 631T310 658Q310 680 342 692T419 704Q464 704 491 680T519 615Q519 580 502 552T454 512V510Q512 487 512 421Q512 358 471 321T362 283Q327 283 295 294ZM506
-1T507 18L514 83H393Q385 83 380 99T374 131Q374 140 378 147L529 397Q534 406 544 408T570 411H600Q635 411 633 392L608 152H625Q643 152 640 122L639 112Q636 83 617 83H601L594 18Q593 -1 557 -1H541Q506 -1 507 18ZM523 152L529 208Q536 267 548 308L544
309L454 152H523ZM150 0T144 2T137 10Q137 14 140 18T144 26L482 682Q488 693 495 696T522 700H528Q545 700 551 698T557 690Q557 684 552 674L213 19Q208 8 200 4T172 0H166Q150 0 144 2Z" />
<glyph unicode="&#xbf;" glyph-name="questiondown" horiz-adv-x="391" d="M340 525T335 493L326 401Q321 369 262 369H230Q169 369 174 401L183 493Q188 525 247 525H279Q340 525 335 493ZM279 301T289 295T299 272Q295 230 277 193T226 119L203 95Q170 60 154
38T138 -6Q138 -53 198 -53Q218 -53 234 -47T267 -31T288 -22Q301 -22 314 -37T335 -73T343 -104Q339 -140 282 -162T164 -185Q79 -185 30 -147T-20 -38Q-20 24 5 63T83 150Q120 181 142 208T174 274Q180 289 192 295T230 301H253Q279 301 289 295Z" />
<glyph unicode="&#xc0;" glyph-name="Agrave" horiz-adv-x="505" d="M-23 -2T-23 20Q-23 23 -20 31T-15 46L206 674Q216 702 270 702H326Q381 702 385 674L478 38Q479 35 479 28Q479 23 478 20Q476 -2 433 -2H384Q337 -2 333 19L320 141H164L124 19Q119 -2 75
-2H23Q-23 -2 -23 20ZM312 263L291 475Q287 525 287 551H282Q269 497 262 475L194 263H312ZM308 749T297 753T271 769L213 821Q189 842 189 855Q189 867 204 871T257 875Q291 875 307 868T336 838L361 796Q374 773 374 762Q374 755 367 752T338 749Q308 749 297
753Z" />
<glyph unicode="&#xc1;" glyph-name="Aacute" horiz-adv-x="505" d="M-23 -2T-23 20Q-23 23 -20 31T-15 46L206 674Q216 702 270 702H326Q381 702 385 674L478 38Q479 35 479 28Q479 23 478 20Q476 -2 433 -2H384Q337 -2 333 19L320 141H164L124 19Q119 -2 75
-2H23Q-23 -2 -23 20ZM312 263L291 475Q287 525 287 551H282Q269 497 262 475L194 263H312ZM242 749T235 751T228 761Q228 771 242 788L289 845Q299 857 306 862T330 871T378 875Q406 875 419 872T433 858Q433 844 402 821L333 769Q318 758 306 754T264 749Q242
749 235 751Z" />
<glyph unicode="&#xc2;" glyph-name="Acircumflex" horiz-adv-x="505" d="M-23 -2T-23 20Q-23 23 -20 31T-15 46L206 674Q216 702 270 702H326Q381 702 385 674L478 38Q479 35 479 28Q479 23 478 20Q476 -2 433 -2H384Q337 -2 333 19L320 141H164L124 19Q119 -2
75 -2H23Q-23 -2 -23 20ZM312 263L291 475Q287 525 287 551H282Q269 497 262 475L194 263H312ZM192 734T182 737T171 748Q171 757 182 772L226 831Q238 848 252 854T305 860H329Q363 860 377 856T402 831L433 772Q439 760 439 752Q439 741 427 738T390 734Q366
734 358 737T339 751L309 783L271 751Q259 740 249 737T215 734Q192 734 182 737Z" />
<glyph unicode="&#xc3;" glyph-name="Atilde" horiz-adv-x="505" d="M-23 -2T-23 20Q-23 23 -20 31T-15 46L206 674Q216 702 270 702H326Q381 702 385 674L478 38Q479 35 479 28Q479 23 478 20Q476 -2 433 -2H384Q337 -2 333 19L320 141H164L124 19Q119 -2 75
-2H23Q-23 -2 -23 20ZM312 263L291 475Q287 525 287 551H282Q269 497 262 475L194 263H312ZM346 756T330 760T293 773Q265 784 252 784Q239 784 231 780T213 768Q201 758 193 758Q182 758 168 766T154 785Q154 793 160 806Q173 836 200 855T259 874Q281 874 297
870T331 856Q334 855 346 850T371 844Q380 844 386 848T398 856T406 862Q411 867 416 871T427 875Q440 875 455 866T470 844Q470 836 465 826Q450 796 424 776T366 756Q346 756 330 760Z" />
<glyph unicode="&#xc4;" glyph-name="Adieresis" horiz-adv-x="505" d="M-23 -2T-23 20Q-23 23 -20 31T-15 46L206 674Q216 702 270 702H326Q381 702 385 674L478 38Q479 35 479 28Q479 23 478 20Q476 -2 433 -2H384Q337 -2 333 19L320 141H164L124 19Q119 -2
75 -2H23Q-23 -2 -23 20ZM312 263L291 475Q287 525 287 551H282Q269 497 262 475L194 263H312ZM178 746T169 755T160 778L167 846Q169 858 180 868T231 878Q269 878 278 869T287 846L280 778Q278 766 268 756T217 746Q178 746 169 755ZM354 746T345 755T336 778L343
846Q345 858 356 868T407 878Q467 878 463 846L456 778Q455 765 443 756T393 746Q354 746 345 755Z" />
<glyph unicode="&#xc5;" glyph-name="Aring" horiz-adv-x="505" d="M-23 -2T-23 20Q-23 23 -20 31T-15 46L206 674Q216 702 270 702H326Q381 702 385 674L478 38Q479 35 479 28Q479 23 478 20Q476 -2 433 -2H384Q337 -2 333 19L320 141H164L124 19Q119 -2 75 -2H23Q-23
-2 -23 20ZM312 263L291 475Q287 525 287 551H282Q269 497 262 475L194 263H312ZM264 718T238 743T212 809Q212 853 243 885T320 917Q360 917 386 891T412 826Q412 782 381 750T304 718Q264 718 238 743ZM324 780T335 792T347 820Q347 834 338 843T315 853Q300
853 289 841T277 812Q277 799 286 790T308 780Q324 780 335 792Z" />
<glyph unicode="&#xc6;" glyph-name="AE" horiz-adv-x="746" d="M-25 -2T-22 20Q-22 28 -17 38L295 673Q308 700 333 700H705Q718 700 724 692T730 666Q730 656 729 650L726 619Q723 593 715 581T691 569H483V424H676Q689 424 695 416T701 390Q701 380 700 374L697
343Q694 317 686 305T662 293H486V131H666Q679 131 685 123T691 97Q691 87 690 81L687 50Q684 24 676 12T653 0H366Q353 0 347 7T342 30L341 141H181L122 19Q112 -2 80 -2H34Q-25 -2 -22 20ZM343 273L346 454L354 526H350L319 455L236 273H343Z" />
<glyph unicode="&#xc7;" glyph-name="Ccedilla" horiz-adv-x="459" d="M470 689T470 661Q470 654 469 651Q463 612 447 585T412 563Q382 573 350 573Q282 573 243 495T203 281Q203 205 228 167T308 128Q337 128 375 139Q378 140 385 140Q400 140 408 124T416 77Q416
43 409 29T381 7Q338 -7 288 -8L272 -52Q299 -57 314 -72T329 -112Q329 -159 295 -185T200 -212Q170 -212 143 -201T116 -173Q116 -160 126 -147T148 -134Q155 -134 168 -139Q171 -140 183 -143T210 -147Q247 -147 247 -118Q247 -107 240 -102T217 -90Q209 -87
203 -84T197 -76Q197 -67 221 -4Q129 9 86 73T42 258Q42 477 122 592T357 708Q403 708 443 697Q470 689 470 661Z" />
<glyph unicode="&#xc8;" glyph-name="Egrave" horiz-adv-x="457" d="M47 0T40 9T34 40L100 660Q102 681 112 690T141 700H436Q461 700 461 664L460 650L457 619Q453 569 422 569H246L231 424H387Q412 424 412 388L411 374L408 343Q404 293 373 293H217L200 131H377Q390
131 395 123T401 96L400 81L397 50Q393 0 363 0H67Q47 0 40 9ZM291 749T280 753T254 769L196 821Q172 842 172 855Q172 867 187 871T240 875Q274 875 290 868T319 838L344 796Q357 773 357 762Q357 755 350 752T321 749Q291 749 280 753Z" />
<glyph unicode="&#xc9;" glyph-name="Eacute" horiz-adv-x="457" d="M47 0T40 9T34 40L100 660Q102 681 112 690T141 700H436Q461 700 461 664L460 650L457 619Q453 569 422 569H246L231 424H387Q412 424 412 388L411 374L408 343Q404 293 373 293H217L200 131H377Q390
131 395 123T401 96L400 81L397 50Q393 0 363 0H67Q47 0 40 9ZM225 749T218 751T211 761Q211 771 225 788L272 845Q282 857 289 862T313 871T361 875Q389 875 402 872T416 858Q416 844 385 821L316 769Q301 758 289 754T247 749Q225 749 218 751Z" />
<glyph unicode="&#xca;" glyph-name="Ecircumflex" horiz-adv-x="457" d="M47 0T40 9T34 40L100 660Q102 681 112 690T141 700H436Q461 700 461 664L460 650L457 619Q453 569 422 569H246L231 424H387Q412 424 412 388L411 374L408 343Q404 293 373 293H217L200
131H377Q390 131 395 123T401 96L400 81L397 50Q393 0 363 0H67Q47 0 40 9ZM175 734T165 737T154 748Q154 757 165 772L209 831Q221 848 235 854T288 860H312Q346 860 360 856T385 831L416 772Q422 760 422 752Q422 741 410 738T373 734Q349 734 341 737T322 751L292
783L254 751Q242 740 232 737T198 734Q175 734 165 737Z" />
<glyph unicode="&#xcb;" glyph-name="Edieresis" horiz-adv-x="457" d="M47 0T40 9T34 40L100 660Q102 681 112 690T141 700H436Q461 700 461 664L460 650L457 619Q453 569 422 569H246L231 424H387Q412 424 412 388L411 374L408 343Q404 293 373 293H217L200
131H377Q390 131 395 123T401 96L400 81L397 50Q393 0 363 0H67Q47 0 40 9ZM161 746T152 755T143 778L150 846Q152 858 163 868T214 878Q252 878 261 869T270 846L263 778Q261 766 251 756T200 746Q161 746 152 755ZM337 746T328 755T319 778L326 846Q328 858 339
868T390 878Q450 878 446 846L439 778Q438 765 426 756T376 746Q337 746 328 755Z" />
<glyph unicode="&#xcc;" glyph-name="Igrave" horiz-adv-x="262" d="M25 -3T28 30L96 670Q99 703 157 703H199Q256 703 253 670L185 30Q182 -3 125 -3H83Q25 -3 28 30ZM186 749T175 753T149 769L91 821Q67 842 67 855Q67 867 82 871T135 875Q169 875 185 868T214
838L239 796Q252 773 252 762Q252 755 245 752T216 749Q186 749 175 753Z" />
<glyph unicode="&#xcd;" glyph-name="Iacute" horiz-adv-x="262" d="M25 -3T28 30L96 670Q99 703 157 703H199Q256 703 253 670L185 30Q182 -3 125 -3H83Q25 -3 28 30ZM120 749T113 751T106 761Q106 771 120 788L167 845Q177 857 184 862T208 871T256 875Q284
875 297 872T311 858Q311 844 280 821L211 769Q196 758 184 754T142 749Q120 749 113 751Z" />
<glyph unicode="&#xce;" glyph-name="Icircumflex" horiz-adv-x="262" d="M25 -3T28 30L96 670Q99 703 157 703H199Q256 703 253 670L185 30Q182 -3 125 -3H83Q25 -3 28 30ZM70 734T60 737T49 748Q49 757 60 772L104 831Q116 848 130 854T183 860H207Q241 860
255 856T280 831L311 772Q317 760 317 752Q317 741 305 738T268 734Q244 734 236 737T217 751L187 783L149 751Q137 740 127 737T93 734Q70 734 60 737Z" />
<glyph unicode="&#xcf;" glyph-name="Idieresis" horiz-adv-x="262" d="M25 -3T28 30L96 670Q99 703 157 703H199Q256 703 253 670L185 30Q182 -3 125 -3H83Q25 -3 28 30ZM56 746T47 755T38 778L45 846Q47 858 58 868T109 878Q147 878 156 869T165 846L158 778Q156
766 146 756T95 746Q56 746 47 755ZM232 746T223 755T214 778L221 846Q223 858 234 868T285 878Q345 878 341 846L334 778Q333 765 321 756T271 746Q232 746 223 755Z" />
<glyph unicode="&#xd0;" glyph-name="Eth" horiz-adv-x="577" d="M448 700T505 628T562 397Q562 220 490 110T267 0H77Q57 0 50 9T44 40L71 290H47Q32 290 25 299T18 329Q18 341 19 347L21 365Q24 395 32 408T59 421H85L110 660Q112 681 122 690T151 700H321Q448
700 505 628ZM343 131T373 211T403 398Q403 464 393 501T361 553T302 569H258L242 421H296Q310 421 317 412T324 383Q324 371 323 364L321 347Q317 316 309 303T284 290H229L212 131H276Q343 131 373 211Z" />
<glyph unicode="&#xd1;" glyph-name="Ntilde" horiz-adv-x="590" d="M23 -2T28 30L95 670Q98 702 156 702H182Q201 702 212 697T231 674L374 338Q388 305 400 260L404 262Q402 294 402 310Q402 321 404 341L441 670Q444 702 502 702H526Q584 702 581 670L514 30Q509
-2 452 -2H433Q413 -2 401 4T382 26L230 376Q223 391 218 411T210 440L204 437Q205 429 206 419T207 394Q207 385 205 369L168 30Q165 -2 106 -2H82Q23 -2 28 30ZM389 756T373 760T336 773Q308 784 295 784Q282 784 274 780T256 768Q244 758 236 758Q225 758 211
766T197 785Q197 793 203 806Q216 836 243 855T302 874Q324 874 340 870T374 856Q377 855 389 850T414 844Q423 844 429 848T441 856T449 862Q454 867 459 871T470 875Q483 875 498 866T513 844Q513 836 508 826Q493 796 467 776T409 756Q389 756 373 760Z" />
<glyph unicode="&#xd2;" glyph-name="Ograve" horiz-adv-x="599" d="M42 -8T42 283Q42 404 75 500T177 652T351 708Q577 708 577 418Q577 297 544 201T442 48T268 -8Q42 -8 42 283ZM356 123T388 210T420 419Q420 503 400 539T337 576Q265 576 233 490T200 283Q200
197 221 160T285 123Q356 123 388 210ZM366 749T355 753T329 769L271 821Q247 842 247 855Q247 867 262 871T315 875Q349 875 365 868T394 838L419 796Q432 773 432 762Q432 755 425 752T396 749Q366 749 355 753Z" />
<glyph unicode="&#xd3;" glyph-name="Oacute" horiz-adv-x="599" d="M42 -8T42 283Q42 404 75 500T177 652T351 708Q577 708 577 418Q577 297 544 201T442 48T268 -8Q42 -8 42 283ZM356 123T388 210T420 419Q420 503 400 539T337 576Q265 576 233 490T200 283Q200
197 221 160T285 123Q356 123 388 210ZM300 749T293 751T286 761Q286 771 300 788L347 845Q357 857 364 862T388 871T436 875Q464 875 477 872T491 858Q491 844 460 821L391 769Q376 758 364 754T322 749Q300 749 293 751Z" />
<glyph unicode="&#xd4;" glyph-name="Ocircumflex" horiz-adv-x="599" d="M42 -8T42 283Q42 404 75 500T177 652T351 708Q577 708 577 418Q577 297 544 201T442 48T268 -8Q42 -8 42 283ZM356 123T388 210T420 419Q420 503 400 539T337 576Q265 576 233 490T200
283Q200 197 221 160T285 123Q356 123 388 210ZM250 734T240 737T229 748Q229 757 240 772L284 831Q296 848 310 854T363 860H387Q421 860 435 856T460 831L491 772Q497 760 497 752Q497 741 485 738T448 734Q424 734 416 737T397 751L367 783L329 751Q317 740
307 737T273 734Q250 734 240 737Z" />
<glyph unicode="&#xd5;" glyph-name="Otilde" horiz-adv-x="599" d="M42 -8T42 283Q42 404 75 500T177 652T351 708Q577 708 577 418Q577 297 544 201T442 48T268 -8Q42 -8 42 283ZM356 123T388 210T420 419Q420 503 400 539T337 576Q265 576 233 490T200 283Q200
197 221 160T285 123Q356 123 388 210ZM404 756T388 760T351 773Q323 784 310 784Q297 784 289 780T271 768Q259 758 251 758Q240 758 226 766T212 785Q212 793 218 806Q231 836 258 855T317 874Q339 874 355 870T389 856Q392 855 404 850T429 844Q438 844 444
848T456 856T464 862Q469 867 474 871T485 875Q498 875 513 866T528 844Q528 836 523 826Q508 796 482 776T424 756Q404 756 388 760Z" />
<glyph unicode="&#xd6;" glyph-name="Odieresis" horiz-adv-x="599" d="M42 -8T42 283Q42 404 75 500T177 652T351 708Q577 708 577 418Q577 297 544 201T442 48T268 -8Q42 -8 42 283ZM356 123T388 210T420 419Q420 503 400 539T337 576Q265 576 233 490T200 283Q200
197 221 160T285 123Q356 123 388 210ZM236 746T227 755T218 778L225 846Q227 858 238 868T289 878Q327 878 336 869T345 846L338 778Q336 766 326 756T275 746Q236 746 227 755ZM412 746T403 755T394 778L401 846Q403 858 414 868T465 878Q525 878 521 846L514
778Q513 765 501 756T451 746Q412 746 403 755Z" />
<glyph unicode="&#xd7;" glyph-name="multiply" horiz-adv-x="448" d="M59 10T43 21T14 45T1 68Q1 73 6 81T17 95L139 243L48 389Q44 395 40 403T36 414Q36 424 51 437T86 461T114 471Q121 471 129 460L212 326L320 458Q331 472 343 472Q355 472 381 450T408 416Q408
411 404 404T393 389L272 244L367 91Q378 71 378 67Q378 59 362 46T326 23T300 12Q288 12 279 26L198 160L83 20Q73 10 66 10Q59 10 43 21Z" />
<glyph unicode="&#xd8;" glyph-name="Oslash" horiz-adv-x="599" d="M577 552T577 418Q577 297 544 201T442 48T268 -8Q189 -8 137 28L114 -7Q104 -23 90 -23Q76 -23 58 -9T39 18Q39 26 46 36L82 91Q42 160 42 283Q42 404 75 500T177 652T351 708Q423 708 469
680L491 714Q497 722 502 726T514 730Q528 730 546 716T565 689Q565 679 558 670L528 625Q577 552 577 418ZM200 271L388 556Q368 576 337 576Q265 576 233 490T200 283V271ZM356 123T388 210T420 419Q420 446 419 458L222 158Q243 123 285 123Q356 123 388 210Z"
/>
<glyph unicode="&#xd9;" glyph-name="Ugrave" horiz-adv-x="583" d="M159 -8T101 40T43 176Q43 185 45 205L94 670Q97 702 155 702H195Q253 702 250 670L202 215Q201 210 201 201Q201 166 221 145T277 123Q318 123 342 146T372 215L420 670Q423 702 481 702H520Q578
702 575 670L526 205Q516 104 446 48T264 -8Q159 -8 101 40ZM347 749T336 753T310 769L252 821Q228 842 228 855Q228 867 243 871T296 875Q330 875 346 868T375 838L400 796Q413 773 413 762Q413 755 406 752T377 749Q347 749 336 753Z" />
<glyph unicode="&#xda;" glyph-name="Uacute" horiz-adv-x="583" d="M159 -8T101 40T43 176Q43 185 45 205L94 670Q97 702 155 702H195Q253 702 250 670L202 215Q201 210 201 201Q201 166 221 145T277 123Q318 123 342 146T372 215L420 670Q423 702 481 702H520Q578
702 575 670L526 205Q516 104 446 48T264 -8Q159 -8 101 40ZM281 749T274 751T267 761Q267 771 281 788L328 845Q338 857 345 862T369 871T417 875Q445 875 458 872T472 858Q472 844 441 821L372 769Q357 758 345 754T303 749Q281 749 274 751Z" />
<glyph unicode="&#xdb;" glyph-name="Ucircumflex" horiz-adv-x="583" d="M159 -8T101 40T43 176Q43 185 45 205L94 670Q97 702 155 702H195Q253 702 250 670L202 215Q201 210 201 201Q201 166 221 145T277 123Q318 123 342 146T372 215L420 670Q423 702 481 702H520Q578
702 575 670L526 205Q516 104 446 48T264 -8Q159 -8 101 40ZM231 734T221 737T210 748Q210 757 221 772L265 831Q277 848 291 854T344 860H368Q402 860 416 856T441 831L472 772Q478 760 478 752Q478 741 466 738T429 734Q405 734 397 737T378 751L348 783L310
751Q298 740 288 737T254 734Q231 734 221 737Z" />
<glyph unicode="&#xdc;" glyph-name="Udieresis" horiz-adv-x="583" d="M159 -8T101 40T43 176Q43 185 45 205L94 670Q97 702 155 702H195Q253 702 250 670L202 215Q201 210 201 201Q201 166 221 145T277 123Q318 123 342 146T372 215L420 670Q423 702 481 702H520Q578
702 575 670L526 205Q516 104 446 48T264 -8Q159 -8 101 40ZM217 746T208 755T199 778L206 846Q208 858 219 868T270 878Q308 878 317 869T326 846L319 778Q317 766 307 756T256 746Q217 746 208 755ZM393 746T384 755T375 778L382 846Q384 858 395 868T446 878Q506
878 502 846L495 778Q494 765 482 756T432 746Q393 746 384 755Z" />
<glyph unicode="&#xdd;" glyph-name="Yacute" horiz-adv-x="484" d="M137 -2T140 30L169 302L52 657Q46 675 46 680Q46 690 61 696T108 702H159Q209 702 212 683L256 402L367 683Q371 694 385 698T424 702H466Q527 702 527 684Q527 674 517 657L326 299L297 30Q294
-2 235 -2H196Q137 -2 140 30ZM232 749T225 751T218 761Q218 771 232 788L279 845Q289 857 296 862T320 871T368 875Q396 875 409 872T423 858Q423 844 392 821L323 769Q308 758 296 754T254 749Q232 749 225 751Z" />
<glyph unicode="&#xde;" glyph-name="Thorn" horiz-adv-x="482" d="M55 -2T42 6T31 30L98 670Q101 702 159 702H199Q257 702 254 670L246 591H276Q375 591 430 542T485 391Q485 279 423 216T255 153H200L187 30Q184 -2 125 -2H85Q55 -2 42 6ZM266 282Q298 282
316 311T334 382Q334 460 265 460H232L213 282H266Z" />
<glyph unicode="&#xdf;" glyph-name="germandbls" horiz-adv-x="480" d="M48 -2T35 6T23 30L72 501Q82 596 141 652T292 708Q374 708 423 664T472 544Q472 490 449 443T382 376V372Q421 350 438 320T456 234Q456 167 432 114T359 31T244 0H227Q201 0 201 34Q201
45 202 50L204 67Q207 93 215 105T239 117H247Q283 117 296 153T310 232Q310 300 260 300H258Q245 300 239 311T232 338Q232 346 233 350L235 367Q238 394 244 405T265 417H270Q296 417 309 452T323 527Q323 555 313 569T282 583Q257 583 241 566T222 519L171 30Q168
-2 107 -2H79Q48 -2 35 6Z" />
<glyph unicode="&#xe0;" glyph-name="agrave" horiz-adv-x="481" d="M88 -9T58 50T28 201Q28 283 48 358T110 482T216 531Q252 531 274 517T316 479Q322 499 327 507T345 520T381 525H393Q454 525 452 500L413 129V123Q413 108 426 108Q430 108 438 111T449 115Q458
115 458 101L456 84Q450 44 446 32Q440 14 414 3T357 -8Q283 -8 270 68Q230 -9 155 -9Q88 -9 58 50ZM235 112T248 127T269 166L285 325Q292 376 296 394Q278 414 255 414Q212 414 194 349T176 203Q176 112 217 112Q235 112 248 127ZM273 572T259 578T234 602L193
665Q191 668 187 675T180 687T178 699Q178 710 189 714T231 718Q270 718 286 712T309 687L336 615Q342 599 342 590Q342 572 300 572Q273 572 259 578Z" />
<glyph unicode="&#xe1;" glyph-name="aacute" horiz-adv-x="481" d="M88 -9T58 50T28 201Q28 283 48 358T110 482T216 531Q252 531 274 517T316 479Q322 499 327 507T345 520T381 525H393Q454 525 452 500L413 129V123Q413 108 426 108Q430 108 438 111T449 115Q458
115 458 101L456 84Q450 44 446 32Q440 14 414 3T357 -8Q283 -8 270 68Q230 -9 155 -9Q88 -9 58 50ZM235 112T248 127T269 166L285 325Q292 376 296 394Q278 414 255 414Q212 414 194 349T176 203Q176 112 217 112Q235 112 248 127ZM205 572T205 585Q205 591 208
598T217 615L259 687Q270 705 287 711T344 718Q372 718 382 715T393 703Q393 696 388 688T370 665L316 602Q301 584 287 578T245 572Q205 572 205 585Z" />
<glyph unicode="&#xe2;" glyph-name="acircumflex" horiz-adv-x="481" d="M88 -9T58 50T28 201Q28 283 48 358T110 482T216 531Q252 531 274 517T316 479Q322 499 327 507T345 520T381 525H393Q454 525 452 500L413 129V123Q413 108 426 108Q430 108 438 111T449
115Q458 115 458 101L456 84Q450 44 446 32Q440 14 414 3T357 -8Q283 -8 270 68Q230 -9 155 -9Q88 -9 58 50ZM235 112T248 127T269 166L285 325Q292 376 296 394Q278 414 255 414Q212 414 194 349T176 203Q176 112 217 112Q235 112 248 127ZM161 572T154 575T147
588Q147 594 151 602T159 615L201 687Q212 705 227 711T276 718H294Q327 718 341 712T363 687L390 615Q396 600 396 590Q396 580 388 576T360 572Q331 572 320 579T300 602L278 646L247 602Q235 585 222 579T180 572Q161 572 154 575Z" />
<glyph unicode="&#xe3;" glyph-name="atilde" horiz-adv-x="481" d="M88 -9T58 50T28 201Q28 283 48 358T110 482T216 531Q252 531 274 517T316 479Q322 499 327 507T345 520T381 525H393Q454 525 452 500L413 129V123Q413 108 426 108Q430 108 438 111T449 115Q458
115 458 101L456 84Q450 44 446 32Q440 14 414 3T357 -8Q283 -8 270 68Q230 -9 155 -9Q88 -9 58 50ZM235 112T248 127T269 166L285 325Q292 376 296 394Q278 414 255 414Q212 414 194 349T176 203Q176 112 217 112Q235 112 248 127ZM155 586T138 595T121 614Q121
624 127 636Q160 704 227 704Q244 704 259 700T295 686Q308 681 321 677T346 672Q357 672 363 676T377 690Q387 702 394 702Q405 702 421 693T437 674Q437 666 428 648Q401 586 334 586Q303 586 263 606Q251 611 240 615T219 619Q203 619 195 614T179 597T163 586Q155
586 138 595Z" />
<glyph unicode="&#xe4;" glyph-name="adieresis" horiz-adv-x="481" d="M88 -9T58 50T28 201Q28 283 48 358T110 482T216 531Q252 531 274 517T316 479Q322 499 327 507T345 520T381 525H393Q454 525 452 500L413 129V123Q413 108 426 108Q430 108 438 111T449
115Q458 115 458 101L456 84Q450 44 446 32Q440 14 414 3T357 -8Q283 -8 270 68Q230 -9 155 -9Q88 -9 58 50ZM235 112T248 127T269 166L285 325Q292 376 296 394Q278 414 255 414Q212 414 194 349T176 203Q176 112 217 112Q235 112 248 127ZM151 581T137 588T125
613L132 677Q134 694 149 701T197 709Q230 709 244 702T256 677L249 613Q247 596 232 589T184 581Q151 581 137 588ZM327 581T313 588T301 613L308 677Q310 694 325 701T373 709Q406 709 420 702T432 677L425 613Q423 596 408 589T360 581Q327 581 313 588Z" />
<glyph unicode="&#xe5;" glyph-name="aring" horiz-adv-x="481" d="M88 -9T58 50T28 201Q28 283 48 358T110 482T216 531Q252 531 274 517T316 479Q322 499 327 507T345 520T381 525H393Q454 525 452 500L413 129V123Q413 108 426 108Q430 108 438 111T449 115Q458
115 458 101L456 84Q450 44 446 32Q440 14 414 3T357 -8Q283 -8 270 68Q230 -9 155 -9Q88 -9 58 50ZM235 112T248 127T269 166L285 325Q292 376 296 394Q278 414 255 414Q212 414 194 349T176 203Q176 112 217 112Q235 112 248 127ZM228 541T206 564T183 629Q183
677 212 708T289 740Q328 740 351 717T374 651Q374 603 344 572T267 541Q228 541 206 564ZM290 604T299 615T308 647Q308 677 281 677Q266 677 257 665T248 633Q248 619 254 612T274 604Q290 604 299 615Z" />
<glyph unicode="&#xe6;" glyph-name="ae" horiz-adv-x="688" d="M128 -9T96 8T45 59T25 140Q25 313 274 316Q281 356 294 389Q284 404 268 409T222 414Q185 414 133 389Q117 382 114 382Q102 382 90 410T78 458Q78 475 101 492T163 520T241 531Q328 531 371 494Q422
531 492 531Q581 531 616 486T652 386Q652 324 625 283T554 223T465 204Q431 204 389 210Q385 109 476 109Q507 109 532 118T584 143Q600 152 603 152Q613 152 613 135Q613 90 606 62Q597 25 551 9T460 -8Q363 -8 312 52Q277 22 240 7T165 -9Q128 -9 96 8ZM418
299T437 299Q484 299 508 316T533 367Q533 391 520 402T484 414Q417 414 395 302Q418 299 437 299ZM215 104T236 114T271 143Q266 182 266 224Q206 223 177 207T148 154Q148 135 161 120T196 104Q215 104 236 114Z" />
<glyph unicode="&#xe7;" glyph-name="ccedilla" horiz-adv-x="408" d="M237 414T211 360T184 209Q184 156 200 133T249 109Q270 109 287 115T323 130Q337 137 341 137Q355 137 366 112T378 66Q378 38 336 19T245 -6L228 -52Q255 -57 270 -72T285 -112Q285 -159
251 -185T156 -212Q126 -212 99 -201T72 -173Q72 -160 82 -147T104 -134Q111 -134 124 -139Q127 -140 139 -143T166 -147Q203 -147 203 -118Q203 -107 196 -102T173 -90Q165 -87 159 -84T153 -76Q153 -68 177 -5Q33 18 33 201Q33 359 97 445T281 531Q334 531 376
512T419 465Q419 455 410 436T388 401T366 386Q360 386 347 394Q316 414 285 414Q237 414 211 360Z" />
<glyph unicode="&#xe8;" glyph-name="egrave" horiz-adv-x="454" d="M441 334T417 292T351 226T256 203Q212 203 182 209Q183 152 203 131T261 109Q291 109 313 118T358 141Q375 153 382 153Q399 153 399 105Q399 70 386 47Q371 20 324 6T232 -8Q131 -8 82 48T32
206Q32 349 93 440T275 531Q367 531 404 487T441 389Q441 334 417 292ZM219 292Q309 292 309 371Q309 392 298 403T267 414Q234 414 214 381T186 292H219ZM280 572T266 578T241 602L200 665Q198 668 194 675T187 687T185 699Q185 710 196 714T238 718Q277 718 293
712T316 687L343 615Q349 599 349 590Q349 572 307 572Q280 572 266 578Z" />
<glyph unicode="&#xe9;" glyph-name="eacute" horiz-adv-x="454" d="M441 334T417 292T351 226T256 203Q212 203 182 209Q183 152 203 131T261 109Q291 109 313 118T358 141Q375 153 382 153Q399 153 399 105Q399 70 386 47Q371 20 324 6T232 -8Q131 -8 82 48T32
206Q32 349 93 440T275 531Q367 531 404 487T441 389Q441 334 417 292ZM219 292Q309 292 309 371Q309 392 298 403T267 414Q234 414 214 381T186 292H219ZM212 572T212 585Q212 591 215 598T224 615L266 687Q277 705 294 711T351 718Q379 718 389 715T400 703Q400
696 395 688T377 665L323 602Q308 584 294 578T252 572Q212 572 212 585Z" />
<glyph unicode="&#xea;" glyph-name="ecircumflex" horiz-adv-x="454" d="M441 334T417 292T351 226T256 203Q212 203 182 209Q183 152 203 131T261 109Q291 109 313 118T358 141Q375 153 382 153Q399 153 399 105Q399 70 386 47Q371 20 324 6T232 -8Q131 -8 82
48T32 206Q32 349 93 440T275 531Q367 531 404 487T441 389Q441 334 417 292ZM219 292Q309 292 309 371Q309 392 298 403T267 414Q234 414 214 381T186 292H219ZM168 572T161 575T154 588Q154 594 158 602T166 615L208 687Q219 705 234 711T283 718H301Q334 718
348 712T370 687L397 615Q403 600 403 590Q403 580 395 576T367 572Q338 572 327 579T307 602L285 646L254 602Q242 585 229 579T187 572Q168 572 161 575Z" />
<glyph unicode="&#xeb;" glyph-name="edieresis" horiz-adv-x="454" d="M441 334T417 292T351 226T256 203Q212 203 182 209Q183 152 203 131T261 109Q291 109 313 118T358 141Q375 153 382 153Q399 153 399 105Q399 70 386 47Q371 20 324 6T232 -8Q131 -8 82
48T32 206Q32 349 93 440T275 531Q367 531 404 487T441 389Q441 334 417 292ZM219 292Q309 292 309 371Q309 392 298 403T267 414Q234 414 214 381T186 292H219ZM158 581T144 588T132 613L139 677Q141 694 156 701T204 709Q237 709 251 702T263 677L256 613Q254
596 239 589T191 581Q158 581 144 588ZM334 581T320 588T308 613L315 677Q317 694 332 701T380 709Q413 709 427 702T439 677L432 613Q430 596 415 589T367 581Q334 581 320 588Z" />
<glyph unicode="&#xec;" glyph-name="igrave" horiz-adv-x="254" d="M81 -8T56 16T30 95Q30 111 31 120L69 493Q72 525 132 525H160Q221 525 217 492L177 130V123Q177 108 193 108Q199 108 207 111T218 115Q227 115 227 101L225 84Q224 78 222 61T215 32Q209 14
183 3T123 -8Q81 -8 56 16ZM383 572T369 578T344 602L303 665Q301 668 297 675T290 687T288 699Q288 710 299 714T341 718Q380 718 396 712T419 687L446 615Q452 599 452 590Q452 572 410 572Q383 572 369 578Z" />
<glyph unicode="&#xed;" glyph-name="iacute" horiz-adv-x="254" d="M81 -8T56 16T30 95Q30 111 31 120L69 493Q72 525 132 525H160Q221 525 217 492L177 130V123Q177 108 193 108Q199 108 207 111T218 115Q227 115 227 101L225 84Q224 78 222 61T215 32Q209 14
183 3T123 -8Q81 -8 56 16ZM91 572T91 585Q91 591 94 598T103 615L145 687Q156 705 173 711T230 718Q258 718 268 715T279 703Q279 696 274 688T256 665L202 602Q187 584 173 578T131 572Q91 572 91 585Z" />
<glyph unicode="&#xee;" glyph-name="icircumflex" horiz-adv-x="254" d="M81 -8T56 16T30 95Q30 111 31 120L69 493Q72 525 132 525H160Q221 525 217 492L177 130V123Q177 108 193 108Q199 108 207 111T218 115Q227 115 227 101L225 84Q224 78 222 61T215 32Q209
14 183 3T123 -8Q81 -8 56 16ZM298 572T291 575T284 588Q284 594 288 602T296 615L338 687Q349 705 364 711T413 718H431Q464 718 478 712T500 687L527 615Q533 600 533 590Q533 580 525 576T497 572Q468 572 457 579T437 602L415 646L384 602Q372 585 359 579T317
572Q298 572 291 575Z" />
<glyph unicode="&#xef;" glyph-name="idieresis" horiz-adv-x="254" d="M81 -8T56 16T30 95Q30 111 31 120L69 493Q72 525 132 525H160Q221 525 217 492L177 130V123Q177 108 193 108Q199 108 207 111T218 115Q227 115 227 101L225 84Q224 78 222 61T215 32Q209
14 183 3T123 -8Q81 -8 56 16ZM311 581T297 588T285 613L292 677Q294 694 309 701T357 709Q390 709 404 702T416 677L409 613Q407 596 392 589T344 581Q311 581 297 588ZM487 581T473 588T461 613L468 677Q470 694 485 701T533 709Q566 709 580 702T592 677L585
613Q583 596 568 589T520 581Q487 581 473 588Z" />
<glyph unicode="&#xf0;" glyph-name="eth" horiz-adv-x="477" d="M452 615T434 613L382 606Q412 542 429 460T446 298Q446 158 392 75T227 -8Q135 -8 83 52T31 234Q31 313 54 379T126 485T249 526Q260 526 280 524Q271 552 257 589L187 580Q177 579 169 592T161
623Q161 636 184 639L229 645L219 660Q215 666 205 677T195 696Q195 705 215 708Q252 715 284 715Q303 715 315 704Q334 686 352 661L422 670Q435 671 443 657T452 628Q452 615 434 613ZM270 109T284 164T298 282Q298 358 285 383T250 409Q207 409 193 356T179
241Q179 162 192 136T227 109Q270 109 284 164Z" />
<glyph unicode="&#xf1;" glyph-name="ntilde" horiz-adv-x="482" d="M465 115T465 101L463 84Q462 78 460 61T453 32Q447 14 421 3T364 -8Q322 -8 296 17T270 100Q270 108 272 130L295 358L296 372Q296 391 289 400T263 409Q236 409 210 377L173 30Q172 14 157
6T113 -2H78Q21 -2 24 30L58 349Q63 402 63 440Q63 458 62 469T62 487Q64 505 107 513T181 522Q195 522 202 515T210 480Q210 463 209 451Q235 485 271 508T351 531Q400 531 425 504T450 422Q450 414 448 392L420 129V123Q420 108 433 108Q437 108 445 111T456
115Q465 115 465 101ZM152 586T135 595T118 614Q118 624 124 636Q157 704 224 704Q241 704 256 700T292 686Q305 681 318 677T343 672Q354 672 360 676T374 690Q384 702 391 702Q402 702 418 693T434 674Q434 666 425 648Q398 586 331 586Q300 586 260 606Q248
611 237 615T216 619Q200 619 192 614T176 597T160 586Q152 586 135 595Z" />
<glyph unicode="&#xf2;" glyph-name="ograve" horiz-adv-x="477" d="M125 -8T78 50T31 222Q31 358 88 444T264 531Q353 531 399 474T446 303Q446 168 389 80T212 -8Q125 -8 78 50ZM265 109T281 167T298 329Q298 373 287 393T246 414Q212 414 196 356T179 195Q179
150 190 130T232 109Q265 109 281 167ZM256 572T242 578T217 602L176 665Q174 668 170 675T163 687T161 699Q161 710 172 714T214 718Q253 718 269 712T292 687L319 615Q325 599 325 590Q325 572 283 572Q256 572 242 578Z" />
<glyph unicode="&#xf3;" glyph-name="oacute" horiz-adv-x="477" d="M125 -8T78 50T31 222Q31 358 88 444T264 531Q353 531 399 474T446 303Q446 168 389 80T212 -8Q125 -8 78 50ZM265 109T281 167T298 329Q298 373 287 393T246 414Q212 414 196 356T179 195Q179
150 190 130T232 109Q265 109 281 167ZM188 572T188 585Q188 591 191 598T200 615L242 687Q253 705 270 711T327 718Q355 718 365 715T376 703Q376 696 371 688T353 665L299 602Q284 584 270 578T228 572Q188 572 188 585Z" />
<glyph unicode="&#xf4;" glyph-name="ocircumflex" horiz-adv-x="477" d="M125 -8T78 50T31 222Q31 358 88 444T264 531Q353 531 399 474T446 303Q446 168 389 80T212 -8Q125 -8 78 50ZM265 109T281 167T298 329Q298 373 287 393T246 414Q212 414 196 356T179
195Q179 150 190 130T232 109Q265 109 281 167ZM144 572T137 575T130 588Q130 594 134 602T142 615L184 687Q195 705 210 711T259 718H277Q310 718 324 712T346 687L373 615Q379 600 379 590Q379 580 371 576T343 572Q314 572 303 579T283 602L261 646L230 602Q218
585 205 579T163 572Q144 572 137 575Z" />
<glyph unicode="&#xf5;" glyph-name="otilde" horiz-adv-x="477" d="M125 -8T78 50T31 222Q31 358 88 444T264 531Q353 531 399 474T446 303Q446 168 389 80T212 -8Q125 -8 78 50ZM265 109T281 167T298 329Q298 373 287 393T246 414Q212 414 196 356T179 195Q179
150 190 130T232 109Q265 109 281 167ZM138 586T121 595T104 614Q104 624 110 636Q143 704 210 704Q227 704 242 700T278 686Q291 681 304 677T329 672Q340 672 346 676T360 690Q370 702 377 702Q388 702 404 693T420 674Q420 666 411 648Q384 586 317 586Q286
586 246 606Q234 611 223 615T202 619Q186 619 178 614T162 597T146 586Q138 586 121 595Z" />
<glyph unicode="&#xf6;" glyph-name="odieresis" horiz-adv-x="477" d="M125 -8T78 50T31 222Q31 358 88 444T264 531Q353 531 399 474T446 303Q446 168 389 80T212 -8Q125 -8 78 50ZM265 109T281 167T298 329Q298 373 287 393T246 414Q212 414 196 356T179 195Q179
150 190 130T232 109Q265 109 281 167ZM134 581T120 588T108 613L115 677Q117 694 132 701T180 709Q213 709 227 702T239 677L232 613Q230 596 215 589T167 581Q134 581 120 588ZM310 581T296 588T284 613L291 677Q293 694 308 701T356 709Q389 709 403 702T415
677L408 613Q406 596 391 589T343 581Q310 581 296 588Z" />
<glyph unicode="&#xf7;" glyph-name="divide" horiz-adv-x="448" d="M166 318T169 350L177 421Q180 453 238 453H250Q308 453 305 421L297 350Q294 318 236 318H224Q166 318 169 350ZM10 172T10 204L11 218L13 239Q15 260 23 269T45 279H408Q431 279 431 249L430
237L428 216Q426 192 418 182T396 172H33Q10 172 10 204ZM160 -2T147 6T136 30L143 101Q146 133 204 133H216Q274 133 271 101L264 30Q261 -2 202 -2H190Q160 -2 147 6Z" />
<glyph unicode="&#xf8;" glyph-name="oslash" horiz-adv-x="477" d="M455 501T447 488L417 445Q446 390 446 303Q446 168 389 80T212 -8Q159 -8 119 15L105 -5Q96 -18 85 -18Q72 -18 53 -3T33 25Q33 31 37 37T42 46L62 74Q31 131 31 222Q31 358 88 444T264 531Q321
531 360 507L381 537Q390 550 402 550Q416 550 435 536T455 509Q455 501 447 488ZM188 414T180 246L284 397Q272 414 246 414Q188 414 180 246ZM287 109T297 271L194 124Q207 109 232 109Q287 109 297 271Z" />
<glyph unicode="&#xf9;" glyph-name="ugrave" horiz-adv-x="482" d="M458 115T458 101L456 84Q455 78 453 61T446 32Q440 14 415 3T359 -8Q276 -8 269 70Q243 35 209 13T132 -9Q81 -9 55 19T28 101Q28 110 30 130L68 493Q71 525 129 525H163Q221 525 218 493L183
163L182 150Q182 131 189 122T215 113Q242 113 268 145L305 493Q306 509 321 517T365 525H400Q457 525 454 493L413 129V123Q413 108 426 108Q430 108 438 111T449 115Q458 115 458 101ZM273 572T259 578T234 602L193 665Q191 668 187 675T180 687T178 699Q178
710 189 714T231 718Q270 718 286 712T309 687L336 615Q342 599 342 590Q342 572 300 572Q273 572 259 578Z" />
<glyph unicode="&#xfa;" glyph-name="uacute" horiz-adv-x="482" d="M458 115T458 101L456 84Q455 78 453 61T446 32Q440 14 415 3T359 -8Q276 -8 269 70Q243 35 209 13T132 -9Q81 -9 55 19T28 101Q28 110 30 130L68 493Q71 525 129 525H163Q221 525 218 493L183
163L182 150Q182 131 189 122T215 113Q242 113 268 145L305 493Q306 509 321 517T365 525H400Q457 525 454 493L413 129V123Q413 108 426 108Q430 108 438 111T449 115Q458 115 458 101ZM205 572T205 585Q205 591 208 598T217 615L259 687Q270 705 287 711T344
718Q372 718 382 715T393 703Q393 696 388 688T370 665L316 602Q301 584 287 578T245 572Q205 572 205 585Z" />
<glyph unicode="&#xfb;" glyph-name="ucircumflex" horiz-adv-x="482" d="M458 115T458 101L456 84Q455 78 453 61T446 32Q440 14 415 3T359 -8Q276 -8 269 70Q243 35 209 13T132 -9Q81 -9 55 19T28 101Q28 110 30 130L68 493Q71 525 129 525H163Q221 525 218
493L183 163L182 150Q182 131 189 122T215 113Q242 113 268 145L305 493Q306 509 321 517T365 525H400Q457 525 454 493L413 129V123Q413 108 426 108Q430 108 438 111T449 115Q458 115 458 101ZM161 572T154 575T147 588Q147 594 151 602T159 615L201 687Q212
705 227 711T276 718H294Q327 718 341 712T363 687L390 615Q396 600 396 590Q396 580 388 576T360 572Q331 572 320 579T300 602L278 646L247 602Q235 585 222 579T180 572Q161 572 154 575Z" />
<glyph unicode="&#xfc;" glyph-name="udieresis" horiz-adv-x="482" d="M458 115T458 101L456 84Q455 78 453 61T446 32Q440 14 415 3T359 -8Q276 -8 269 70Q243 35 209 13T132 -9Q81 -9 55 19T28 101Q28 110 30 130L68 493Q71 525 129 525H163Q221 525 218 493L183
163L182 150Q182 131 189 122T215 113Q242 113 268 145L305 493Q306 509 321 517T365 525H400Q457 525 454 493L413 129V123Q413 108 426 108Q430 108 438 111T449 115Q458 115 458 101ZM151 581T137 588T125 613L132 677Q134 694 149 701T197 709Q230 709 244
702T256 677L249 613Q247 596 232 589T184 581Q151 581 137 588ZM327 581T313 588T301 613L308 677Q310 694 325 701T373 709Q406 709 420 702T432 677L425 613Q423 596 408 589T360 581Q327 581 313 588Z" />
<glyph unicode="&#xfd;" glyph-name="yacute" horiz-adv-x="408" d="M427 525T424 503Q424 499 420 485L180 -185Q172 -206 123 -206H103Q75 -206 61 -201T49 -185Q49 -179 54 -167L112 -13L28 480Q25 495 26 502Q27 513 40 519T78 525H121Q144 525 156 521T170
502L185 289Q187 263 189 177H193L222 289L284 504Q291 525 339 525H368Q427 525 424 503ZM165 572T165 585Q165 591 168 598T177 615L219 687Q230 705 247 711T304 718Q332 718 342 715T353 703Q353 696 348 688T330 665L276 602Q261 584 247 578T205 572Q165
572 165 585Z" />
<glyph unicode="&#xfe;" glyph-name="thorn" horiz-adv-x="483" d="M3 -206T6 -174L100 722Q103 754 164 754H192Q223 754 236 746T248 722L222 475Q241 501 268 516T327 531Q385 531 418 475T452 307Q452 222 431 151T366 36T255 -8Q204 -8 175 21L154 -174Q152
-189 138 -197T91 -206H63Q3 -206 6 -174ZM267 109T285 169T303 310Q303 364 295 387T266 410Q236 410 211 370L185 123Q205 109 223 109Q267 109 285 169Z" />
<glyph unicode="&#xff;" glyph-name="ydieresis" horiz-adv-x="408" d="M427 525T424 503Q424 499 420 485L180 -185Q172 -206 123 -206H103Q75 -206 61 -201T49 -185Q49 -179 54 -167L112 -13L28 480Q25 495 26 502Q27 513 40 519T78 525H121Q144 525 156 521T170
502L185 289Q187 263 189 177H193L222 289L284 504Q291 525 339 525H368Q427 525 424 503ZM111 581T97 588T85 613L92 677Q94 694 109 701T157 709Q190 709 204 702T216 677L209 613Q207 596 192 589T144 581Q111 581 97 588ZM287 581T273 588T261 613L268 677Q270
694 285 701T333 709Q366 709 380 702T392 677L385 613Q383 596 368 589T320 581Q287 581 273 588Z" />
<glyph unicode="&#x2013;" glyph-name="endash" horiz-adv-x="443" d="M24 212T24 245Q24 256 25 262L26 269Q30 296 37 307T60 319H395Q420 319 420 286Q420 275 419 269L418 262Q414 235 407 224T384 212H49Q24 212 24 245Z" />
<glyph unicode="&#x2014;" glyph-name="emdash" horiz-adv-x="886" d="M34 212T34 245Q34 256 35 262L36 269Q40 296 47 307T70 319H828Q853 319 853 286Q853 275 852 269L851 262Q847 235 840 224T817 212H59Q34 212 34 245Z" />
<glyph unicode="&#x2018;" glyph-name="quoteleft" horiz-adv-x="210" d="M66 478T52 490T40 522Q46 575 76 629T143 720T203 757Q219 757 233 752T246 735Q245 724 237 709Q234 702 221 675T196 609T179 522Q176 478 115 478H96Q66 478 52 490Z" />
<glyph unicode="&#x2019;" glyph-name="quoteright" horiz-adv-x="210" d="M66 478T52 483T38 498Q38 507 48 529Q50 534 63 560T88 626T104 713Q109 757 169 757H188Q218 757 231 745T243 713Q238 661 208 606T141 515T81 478Q66 478 52 483Z" />
<glyph unicode="&#x201a;" glyph-name="quotesinglbase" horiz-adv-x="210" d="M3 -125T-11 -120T-25 -105Q-25 -96 -15 -74Q-13 -69 0 -43T25 23T41 110Q46 154 106 154H125Q155 154 168 142T180 110Q175 58 145 3T78 -88T18 -125Q3 -125 -11 -120Z" />
<glyph unicode="&#x201c;" glyph-name="quotedblleft" horiz-adv-x="348" d="M220 478T206 490T194 522Q200 575 230 629T297 720T357 757Q373 757 387 752T400 735Q399 724 391 709Q388 702 375 675T350 609T333 522Q330 478 269 478H250Q220 478 206 490ZM310
478T296 490T284 522Q290 575 320 629T387 720T447 757Q463 757 477 752T490 735Q489 724 481 709Q478 702 465 675T440 609T423 522Q420 478 359 478H340Q310 478 296 490Z" />
<glyph unicode="&#x201d;" glyph-name="quotedblright" horiz-adv-x="348" d="M223 478T209 483T195 498Q195 507 205 529Q207 534 220 560T245 626T261 713Q266 757 326 757H345Q375 757 388 745T400 713Q395 661 365 606T298 515T238 478Q223 478 209 483ZM314
478T300 483T286 498Q286 507 296 529Q298 534 311 560T336 626T352 713Q357 757 417 757H436Q466 757 479 745T491 713Q486 661 456 606T389 515T329 478Q314 478 300 483Z" />
<glyph unicode="&#x201e;" glyph-name="quotedblbase" horiz-adv-x="348" d="M157 -125T143 -120T129 -105Q129 -96 139 -74Q141 -69 154 -43T179 23T195 110Q200 154 260 154H279Q309 154 322 142T334 110Q329 58 299 3T232 -88T172 -125Q157 -125 143 -120ZM248
-125T234 -120T220 -105Q220 -96 230 -74Q232 -69 245 -43T270 23T286 110Q291 154 351 154H370Q400 154 413 142T425 110Q420 58 390 3T323 -88T263 -125Q248 -125 234 -120Z" />
<glyph unicode="&#x2022;" glyph-name="bullet" horiz-adv-x="298" d="M97 194T66 223T34 309Q34 375 69 417T164 459Q218 459 248 426T279 343Q279 279 243 237T147 194Q97 194 66 223Z" />
<glyph unicode="&#x2039;" glyph-name="guilsinglleft" horiz-adv-x="247" d="M129 46T120 61L31 214Q20 233 20 252Q20 261 25 270T38 289T47 302L161 455Q171 469 192 469Q206 469 223 455T241 425Q241 418 235 410T226 398L120 249L201 99Q207 89 205 80Q203
70 182 58T143 46Q129 46 120 61Z" />
<glyph unicode="&#x203a;" glyph-name="guilsinglright" horiz-adv-x="247" d="M117 469T126 454L215 301Q226 282 226 263Q226 254 221 245T208 226T199 213L85 60Q75 46 54 46Q40 46 23 60T5 90Q5 97 11 105T20 117L126 266L45 416Q39 426 41 435Q43 445 64
457T103 469Q117 469 126 454Z" />
</font>
</defs>
</svg>
