<?xml version="1.0" standalone="no"?>
<!DOCTYPE svg PUBLIC "-//W3C//DTD SVG 1.1//EN" "http://www.w3.org/Graphics/SVG/1.1/DTD/svg11.dtd">
<svg xmlns="http://www.w3.org/2000/svg">
<defs >
<font id="AsapCondensed" horiz-adv-x="455" ><font-face
    font-family="Asap Condensed"
    units-per-em="1000"
    panose-1="2 15 5 6 3 2 2 6 2 3"
    ascent="934"
    descent="-212"
    alphabetic="0" />
<glyph unicode=" " glyph-name="space" horiz-adv-x="137" />
<glyph unicode="!" glyph-name="exclam" horiz-adv-x="246" d="M85 202T85 224V680Q85 702 123 702H146Q183 702 183 680L155 224Q154 213 147 208T124 202H116Q85 202 85 224ZM73 -2T73 20V86Q73 108 111 108H129Q167 108 167 86V20Q167 -2 129 -2H111Q73 -2 73 20Z" />
<glyph unicode="&quot;" glyph-name="quotedbl" horiz-adv-x="309" d="M69 472T67 484L45 680Q43 691 53 696T85 702H95Q116 702 126 697T135 680L112 484Q111 472 90 472H89Q69 472 67 484ZM198 472T196 484L174 680Q172 691 182 696T214 702H224Q245 702 255
697T264 680L241 484Q240 472 219 472H218Q198 472 196 484Z" />
<glyph unicode="#" glyph-name="numbersign" horiz-adv-x="514" d="M87 -2T87 16L94 68L112 196H44Q34 196 29 203T24 226V243Q24 259 29 266T44 273H124L144 420H74Q64 420 59 427T54 450V467Q54 483 59 490T74 497H154L178 665Q180 676 188 681T216 686H223Q255
686 252 666L228 497H328L351 665Q353 676 361 681T389 686H398Q430 686 427 666L404 497H469Q480 497 484 490T489 467V450Q489 434 485 427T469 420H392L372 273H442Q453 273 457 266T462 243V226Q462 210 458 203T442 196H361L336 19Q335 8 327 3T299 -2H291Q262
-2 262 17Q262 25 277 134L286 196H186L161 19Q160 8 152 3T124 -2H117Q87 -2 87 16ZM298 273L318 420H218L198 273H298Z" />
<glyph unicode="$" glyph-name="dollar" horiz-adv-x="460" d="M417 117T377 67T267 1V-53Q267 -71 241 -71H236Q210 -71 210 -53V-5H209Q116 -5 52 41Q46 45 44 49T41 64Q41 82 47 101T64 121Q68 121 70 119T73 117Q117 95 144 85T210 74V320Q160 345 129 368T77
427T56 515Q56 591 97 641T210 706V741Q210 759 236 759H241Q267 759 267 741V711Q336 709 385 681Q392 677 392 669Q392 656 383 632T364 608Q361 608 351 613Q316 630 267 632V390Q315 366 346 343T397 284T417 194Q417 117 377 67ZM144 491T160 467T210 422V624Q180
613 162 588T144 525Q144 491 160 467ZM296 98T312 124T328 187Q328 223 313 247T267 290V85Q296 98 312 124Z" />
<glyph unicode="%" glyph-name="percent" horiz-adv-x="686" d="M121 381T85 416T49 542Q49 706 174 706Q227 706 263 670T299 542Q299 451 263 416T174 381Q121 381 85 416ZM173 -7T168 -5T163 2Q163 6 168 16L461 687Q468 706 494 706H509Q527 706 527 697Q527
694 526 692T524 687L230 12Q222 -7 197 -7H181Q173 -7 168 -5ZM235 437T235 542Q235 588 223 619T175 651Q139 651 127 620T115 542Q115 497 127 467T175 437Q235 437 235 542ZM459 -5T423 30T387 156Q387 320 512 320Q565 320 601 284T637 156Q637 65 601 30T512
-5Q459 -5 423 30ZM546 51T559 82T573 156Q573 265 512 265Q452 265 452 156Q452 51 512 51Q546 51 559 82Z" />
<glyph unicode="&amp;" glyph-name="ampersand" horiz-adv-x="520" d="M484 71T490 53T496 24Q496 -6 431 -6Q374 -6 347 37Q314 17 283 6T212 -6Q136 -6 84 45T32 203Q32 278 59 326T130 387V391Q94 408 72 446T50 538Q50 620 94 663T213 706Q243 706 265 699T288
674Q288 666 282 646T267 625Q264 625 251 629T222 634Q176 634 157 601T137 529Q137 502 148 474T181 427T235 408H322L333 513Q335 535 365 535H379Q409 535 409 513V408H466Q485 408 485 378V366Q485 336 466 336H409V140Q409 98 419 82T447 66Q458 66 465 68T476
71Q484 71 490 53ZM120 129T149 98T222 66Q245 66 269 75T325 101Q322 115 322 132V336H231Q175 336 148 307T120 204Q120 129 149 98Z" />
<glyph unicode="&apos;" glyph-name="quotesingle" horiz-adv-x="164" d="M63 472T61 484L39 680Q37 691 47 696T79 702H89Q110 702 120 697T129 680L106 484Q105 472 84 472H83Q63 472 61 484Z" />
<glyph unicode="(" glyph-name="parenleft" horiz-adv-x="249" d="M225 -212T214 -201Q136 -126 92 3T47 286Q47 438 92 567T214 773Q224 783 235 783Q245 783 255 776T265 758Q265 746 256 736Q193 663 161 545T128 286Q128 146 160 28T255 -164Q264 -175 264
-184Q264 -192 255 -202T236 -212Q225 -212 214 -201Z" />
<glyph unicode=")" glyph-name="parenright" horiz-adv-x="249" d="M3 -212T-6 -203T-16 -184Q-16 -177 -8 -167Q55 -94 88 25T121 286Q121 427 89 545T-7 736Q-16 748 -16 757Q-16 766 -6 774T14 783Q25 783 35 773Q113 698 157 569T202 286Q202 134 157 5T35
-201Q24 -212 13 -212Q3 -212 -6 -203Z" />
<glyph unicode="*" glyph-name="asterisk" horiz-adv-x="299" d="M69 436T62 442T54 455Q54 460 59 468L116 554L35 591Q21 597 21 606Q21 617 26 623T39 630Q43 630 51 627L128 593V689Q128 709 148 709Q168 709 168 689V593L244 627Q252 630 256 630Q263 630
268 624T274 607Q274 601 271 598T260 591L178 554L236 468Q241 460 241 455Q241 448 234 442T218 436Q209 436 203 445L148 526L92 445Q86 436 77 436Q69 436 62 442Z" />
<glyph unicode="+" glyph-name="plus" horiz-adv-x="449" d="M205 -2T198 2T191 18V197H54Q44 197 40 202T35 223V230Q35 264 54 264H191V443Q191 454 198 458T221 463H228Q244 463 251 459T258 443V264H396Q406 264 410 257T414 234V227Q414 211 410 204T396
197H258V18Q258 8 251 3T228 -2H221Q205 -2 198 2Z" />
<glyph unicode="," glyph-name="comma" horiz-adv-x="188" d="M36 -116T28 -113T19 -101Q19 -97 22 -89T26 -77Q39 -38 46 -2T54 76Q54 91 63 99T92 108H102Q120 108 130 101T140 80Q140 24 124 -20T86 -90T47 -116Q36 -116 28 -113Z" />
<glyph unicode="-" glyph-name="hyphen" horiz-adv-x="254" d="M30 230T30 260V270Q30 300 49 300H205Q224 300 224 270V260Q224 230 205 230H49Q30 230 30 260Z" />
<glyph unicode="." glyph-name="period" horiz-adv-x="188" d="M47 -2T47 20V86Q47 108 85 108H103Q141 108 141 86V20Q141 -2 103 -2H85Q47 -2 47 20Z" />
<glyph unicode="/" glyph-name="slash" horiz-adv-x="348" d="M26 -76T20 -74T14 -63Q14 -58 31 -7L270 686Q274 696 281 699T302 703H310Q324 703 329 701T334 691Q334 687 330 674T322 654L76 -60Q72 -70 66 -73T44 -76H40Q26 -76 20 -74Z" />
<glyph unicode="0" glyph-name="zero" horiz-adv-x="459" d="M140 -6T87 81T34 350Q34 532 87 619T228 706Q317 706 370 619T424 350Q424 168 371 81T228 -6Q140 -6 87 81ZM277 66T307 132T337 350Q337 501 307 567T229 634Q180 634 151 568T122 350Q122 199 151
133T229 66Q277 66 307 132Z" />
<glyph unicode="1" glyph-name="one" horiz-adv-x="459" d="M62 0T57 7T52 30V42Q52 58 57 65T72 72H205V611L58 587Q49 587 44 604T38 638Q38 653 56 657L258 702Q270 702 279 696T289 681V72H402Q413 72 417 65T422 42V30Q422 14 418 7T402 0H72Q62 0 57 7Z" />
<glyph unicode="2" glyph-name="two" horiz-adv-x="459" d="M39 0T33 14T27 44Q27 57 31 61L266 395Q302 447 314 474T326 532Q326 580 296 607T214 634Q176 634 150 623T99 593Q97 591 90 586T78 581Q70 581 58 600T45 632Q45 651 72 668T140 695T217 706Q304
706 358 661T412 539Q412 501 401 470T362 395T272 272L137 71H395Q406 71 410 64T415 41V30Q415 14 411 7T395 0H47Q39 0 33 14Z" />
<glyph unicode="3" glyph-name="three" horiz-adv-x="459" d="M156 -6T115 2T49 24T24 51Q24 65 37 83T59 101Q62 101 82 93Q136 66 190 66Q244 66 285 98T327 206Q327 277 290 306T184 336H144Q134 336 129 343T124 366V377Q124 393 129 400T144 407H180Q225
407 253 428T293 480T306 537Q306 575 281 604T194 634Q143 634 96 608Q80 601 77 601Q69 601 57 621T44 653Q44 674 96 690T198 706Q288 706 339 661T391 535Q391 434 288 391V387Q338 373 376 325T414 200Q414 134 386 88T310 18T202 -6Q156 -6 115 2Z" />
<glyph unicode="4" glyph-name="four" horiz-adv-x="459" d="M283 -2T283 20V167H36Q28 167 20 185T12 218Q12 223 14 229L282 689Q291 702 316 702H336Q366 702 366 680V239H422Q433 239 437 232T442 209V197Q442 181 438 174T422 167H366V20Q366 -2 336 -2H313Q283
-2 283 20ZM283 239V439Q283 503 292 561L288 563L102 239H283Z" />
<glyph unicode="5" glyph-name="five" horiz-adv-x="459" d="M156 -6T118 3T58 27T36 54Q36 68 49 86T71 104Q75 104 93 95Q120 81 143 74T199 66Q254 66 292 104T330 212Q330 280 289 315T170 350H95Q79 350 73 357T67 380L84 670Q85 686 92 693T116 700H364Q375
700 379 693T384 670V658Q384 642 380 635T364 628H165L152 422H196Q285 422 350 373T416 210Q416 94 354 44T202 -6Q156 -6 118 3Z" />
<glyph unicode="6" glyph-name="six" horiz-adv-x="459" d="M134 -5T86 61T37 243Q37 378 97 482T234 644T351 702Q365 702 374 682T384 649Q384 641 376 638Q281 597 222 529T138 372Q187 405 252 405Q300 405 338 380T398 309T420 204Q420 141 395 94T325 21T226
-5Q134 -5 86 61ZM255 67T279 81T319 126T335 201Q335 268 304 300T225 333Q173 333 124 301Q121 271 121 241Q121 145 152 106T229 67Q255 67 279 81Z" />
<glyph unicode="7" glyph-name="seven" horiz-adv-x="459" d="M106 -2T97 2T87 15Q87 18 91 30L337 628H59Q49 628 44 635T39 658V670Q39 686 44 693T59 700H414Q420 700 427 682T434 649Q434 644 432 638L180 14Q174 -2 140 -2H128Q106 -2 97 2Z" />
<glyph unicode="8" glyph-name="eight" horiz-adv-x="459" d="M145 -6T93 44T40 192Q40 321 142 374Q105 399 84 436T62 531Q62 615 110 660T232 706Q303 706 353 664T403 538Q403 479 378 439T310 376Q362 347 391 308T420 196Q420 101 367 48T228 -6Q145 -6
93 44ZM280 432T299 461T318 534Q318 584 294 609T231 634Q194 634 170 609T146 536Q146 487 171 460T245 409Q280 432 299 461ZM274 66T304 101T334 196Q334 238 317 264T276 305T204 342Q166 318 146 284T126 197Q126 132 155 99T229 66Q274 66 304 101Z" />
<glyph unicode="9" glyph-name="nine" horiz-adv-x="459" d="M96 -4T87 16T77 49Q77 57 85 60Q180 101 239 169T322 326Q273 293 208 293Q160 293 122 318T62 389T40 494Q40 557 65 604T135 677T234 703Q327 703 375 638T423 455Q423 320 363 216T226 54T110 -4Q96
-4 87 16ZM285 365T336 398Q339 428 339 458Q339 554 308 592T231 631Q205 631 181 617T141 572T125 498Q125 431 156 398T235 365Q285 365 336 398Z" />
<glyph unicode=":" glyph-name="colon" horiz-adv-x="188" d="M47 415T47 437V503Q47 525 85 525H103Q141 525 141 503V437Q141 415 103 415H85Q47 415 47 437ZM47 -2T47 20V86Q47 108 85 108H103Q141 108 141 86V20Q141 -2 103 -2H85Q47 -2 47 20Z" />
<glyph unicode=";" glyph-name="semicolon" horiz-adv-x="188" d="M47 415T47 437V503Q47 525 85 525H103Q141 525 141 503V437Q141 415 103 415H85Q47 415 47 437ZM36 -116T28 -113T19 -101Q19 -97 22 -89T26 -77Q39 -38 46 -2T54 76Q54 91 63 99T92 108H102Q120
108 130 101T140 80Q140 24 124 -20T86 -90T47 -116Q36 -116 28 -113Z" />
<glyph unicode="&lt;" glyph-name="less" horiz-adv-x="448" d="M390 6T384 9L53 183Q42 189 37 197T32 218V235Q32 260 53 270L384 444Q390 447 395 447Q410 447 410 421V407Q410 382 390 371L124 227L390 82Q411 70 411 46V32Q411 6 395 6Q390 6 384 9Z" />
<glyph unicode="=" glyph-name="equal" horiz-adv-x="449" d="M45 268T40 275T35 298V311Q35 327 40 334T55 341H394Q405 341 409 334T414 311V298Q414 282 410 275T394 268H55Q45 268 40 275ZM45 104T40 111T35 134V147Q35 163 40 170T55 177H394Q405 177 409
170T414 147V134Q414 118 410 111T394 104H55Q45 104 40 111Z" />
<glyph unicode="&gt;" glyph-name="greater" horiz-adv-x="448" d="M35 6T35 32V46Q35 70 56 82L322 227L56 371Q36 382 36 407V421Q36 447 51 447Q56 447 62 444L393 270Q414 260 414 235V218Q414 205 409 197T393 183L62 9Q56 6 51 6Q35 6 35 32Z" />
<glyph unicode="?" glyph-name="question" horiz-adv-x="391" d="M117 202T117 225Q117 259 138 302T199 389Q242 437 261 467T281 534Q281 582 254 607T173 632Q130 632 83 606Q80 605 73 602T62 598Q55 598 43 618T30 649Q30 673 79 689T182 706Q240 706 284
685T352 626T376 542Q376 509 363 479T332 425T281 363Q239 315 220 286T195 222Q193 212 186 207T162 202H147Q117 202 117 225ZM104 -2T104 20V86Q104 108 144 108H161Q201 108 201 86V20Q201 -2 161 -2H144Q104 -2 104 20Z" />
<glyph unicode="@" glyph-name="at" horiz-adv-x="792" d="M527 705T591 665T691 550T727 375Q727 286 703 213T635 97T535 54Q498 54 476 73T451 131Q409 54 337 54Q309 54 282 70T236 127T217 236Q217 314 239 375T301 470T395 505Q425 505 448 492T486 461Q495
488 500 495T520 502H526Q548 502 548 481L539 375Q521 170 521 146Q521 122 532 115T555 107Q585 107 612 145T656 246T673 378Q673 463 644 527T562 626T439 661Q348 661 273 605T153 451T109 236Q109 142 137 70T218 -42T338 -82Q371 -82 393 -77T439 -61Q457
-53 464 -53Q478 -53 478 -76Q478 -102 430 -114T334 -126Q252 -126 189 -80T90 48T55 237Q55 366 106 473T245 643T442 705Q527 705 591 665ZM457 279T462 337T473 413Q441 443 403 443Q341 443 316 386T290 241Q290 174 308 145T358 115Q383 115 409 140T454
225Q457 279 462 337Z" />
<glyph unicode="A" glyph-name="A" horiz-adv-x="505" d="M13 -2T13 15Q13 18 15 28L196 683Q202 702 236 702H268Q304 702 308 683L489 28Q492 21 492 15Q492 7 483 3T455 -2H438Q406 -2 402 14L359 178H144L102 14Q98 -2 66 -2H50Q13 -2 13 15ZM337 254L266
528Q263 541 255 589H250Q248 582 246 566L238 528L167 254H337Z" />
<glyph unicode="B" glyph-name="B" horiz-adv-x="539" d="M91 0T85 7T78 30V670Q78 686 84 693T106 700H279Q373 700 420 653T468 523Q468 473 441 428T378 371V367Q417 353 454 317T492 201Q492 98 439 49T279 0H106Q91 0 85 7ZM272 398Q318 398 346 431T375
515Q375 571 350 597T270 624H168V398H272ZM297 76Q345 76 372 110T400 205Q400 260 370 291T283 322H168V76H297Z" />
<glyph unicode="C" glyph-name="C" horiz-adv-x="459" d="M176 -6T113 80T49 350Q49 531 113 618T310 706Q338 706 365 701T411 687Q421 683 424 677T428 660Q428 643 420 621T397 607Q355 628 310 628Q224 628 183 561T142 351Q142 208 182 140T309 72Q361 72
403 97Q409 99 412 99Q425 99 432 82T440 48Q440 38 435 30T416 15Q399 7 370 1T309 -6Q176 -6 113 80Z" />
<glyph unicode="D" glyph-name="D" horiz-adv-x="573" d="M91 0T85 7T78 30V670Q78 686 84 693T105 700H273Q524 700 524 350Q524 0 273 0H105Q91 0 85 7ZM271 76Q346 76 389 141T432 350Q432 492 389 558T271 624H169V76H271Z" />
<glyph unicode="E" glyph-name="E" horiz-adv-x="457" d="M92 0T86 7T79 30V670Q79 686 85 693T106 700H394Q413 700 413 670V654Q413 624 394 624H169V396H371Q390 396 390 366V350Q390 320 371 320H169V76H394Q404 76 408 69T413 46V30Q413 14 409 7T394 0H106Q92
0 86 7Z" />
<glyph unicode="F" glyph-name="F" horiz-adv-x="423" d="M78 -2T78 20V670Q78 686 84 693T105 700H365Q384 700 384 670V654Q384 624 365 624H168V376H348Q367 376 367 346V330Q367 300 348 300H168V20Q168 -2 130 -2H116Q78 -2 78 20Z" />
<glyph unicode="G" glyph-name="G" horiz-adv-x="552" d="M484 382T484 352V66Q484 28 429 11T302 -6Q49 -6 49 344Q49 528 115 617T311 706Q348 706 385 696T446 672T471 644Q471 630 458 608T435 586Q432 586 414 597T371 618T312 627Q222 627 182 558T142 353Q142
226 180 148T305 70Q358 70 394 83V306H309Q299 306 294 313T289 336V352Q289 368 294 375T309 382H457Q484 382 484 352Z" />
<glyph unicode="H" glyph-name="H" horiz-adv-x="601" d="M79 -2T79 20V680Q79 702 117 702H132Q169 702 169 680V397H432V680Q432 702 470 702H484Q522 702 522 680V20Q522 -2 484 -2H470Q432 -2 432 20V321H169V20Q169 -2 132 -2H117Q79 -2 79 20Z" />
<glyph unicode="I" glyph-name="I" horiz-adv-x="262" d="M86 -2T86 20V680Q86 702 124 702H139Q176 702 176 680V20Q176 -2 139 -2H124Q86 -2 86 20Z" />
<glyph unicode="J" glyph-name="J" horiz-adv-x="355" d="M67 -6T38 2T9 26Q9 39 16 60T32 81Q38 81 55 77T89 72Q139 72 161 101T184 195V680Q184 702 222 702H236Q275 702 275 680V205Q275 106 233 50T99 -6Q67 -6 38 2Z" />
<glyph unicode="K" glyph-name="K" horiz-adv-x="510" d="M82 -2T82 20V680Q82 702 120 702H133Q172 702 172 680V368H175L387 688Q396 702 434 702H451Q468 702 477 699T486 689Q486 681 477 669L262 357L496 28Q503 19 503 12Q503 4 494 1T463 -2H442Q422 -2
411 0T394 11L175 337H172V20Q172 -2 133 -2H120Q82 -2 82 20Z" />
<glyph unicode="L" glyph-name="L" horiz-adv-x="408" d="M91 0T85 7T78 30V680Q78 702 116 702H130Q168 702 168 680V76H376Q387 76 391 69T396 46V30Q396 14 392 7T376 0H105Q91 0 85 7Z" />
<glyph unicode="M" glyph-name="M" horiz-adv-x="689" d="M313 239T307 252L190 482Q176 510 160 551L156 549Q161 509 161 478V20Q161 -2 123 -2H111Q73 -2 73 20V680Q73 702 111 702H132Q161 702 170 684L330 371Q341 349 346 323Q351 349 362 371L522 684Q531
702 560 702H581Q619 702 619 680V20Q619 -2 581 -2H569Q531 -2 531 20V478Q531 509 536 549L532 551Q516 510 502 482L385 252Q379 239 363 239H329Q313 239 307 252Z" />
<glyph unicode="N" glyph-name="N" horiz-adv-x="590" d="M73 -2T73 20V680Q73 702 111 702H135Q150 702 159 698T174 682L406 235Q420 209 432 172L437 174Q429 209 429 240V680Q429 702 467 702H479Q517 702 517 680V20Q517 -2 479 -2H458Q430 -2 422 13L184
475Q170 501 158 538L153 536Q161 501 161 470V20Q161 -2 123 -2H111Q73 -2 73 20Z" />
<glyph unicode="O" glyph-name="O" horiz-adv-x="599" d="M177 -6T113 83T49 352Q49 706 299 706Q550 706 550 352Q550 172 486 83T299 -6Q177 -6 113 83ZM458 70T458 352Q458 630 300 630Q221 630 182 563T142 352Q142 70 300 70Q458 70 458 352Z" />
<glyph unicode="P" glyph-name="P" horiz-adv-x="482" d="M73 -2T73 20V670Q73 686 79 693T100 700H265Q336 700 391 658T447 504Q447 421 416 375T345 314T273 298H163V20Q163 -2 125 -2H111Q73 -2 73 20ZM268 374Q301 374 328 403T355 504Q355 571 328 597T261
624H163V374H268Z" />
<glyph unicode="Q" glyph-name="Q" horiz-adv-x="599" d="M532 -169T390 -94T193 13Q49 86 49 350Q49 530 112 618T299 706Q422 706 486 618T550 350Q550 204 508 118T385 6V3L579 -86Q591 -92 591 -102Q589 -116 573 -142T542 -169Q532 -169 390 -94ZM377 69T417
139T458 350Q458 492 418 561T300 630Q142 630 142 350Q142 69 300 69Q377 69 417 139Z" />
<glyph unicode="R" glyph-name="R" horiz-adv-x="513" d="M77 -2T77 20V670Q77 686 83 693T104 700H252Q351 700 399 658T447 523Q447 461 423 419T355 354V350Q375 340 390 311T424 225L487 28Q490 19 490 14Q490 -2 451 -2H434Q420 -2 410 2T397 14L337 210Q319
267 297 287T230 308H167V20Q167 -2 129 -2H115Q77 -2 77 20ZM267 384Q303 384 328 420T354 507Q354 566 330 595T261 624H166V384H267Z" />
<glyph unicode="S" glyph-name="S" horiz-adv-x="437" d="M107 -5T43 41Q37 45 35 49T32 64Q32 82 38 101T55 121Q59 121 61 119T64 117Q119 74 203 74Q254 74 286 104T319 187Q319 234 293 260T216 313Q159 341 126 364T70 423T47 515Q47 606 104 658T254 711Q325
711 376 681Q383 677 383 669Q383 656 374 632T355 608Q352 608 342 613Q304 632 249 632Q201 632 168 605T135 525Q135 480 162 453T252 393Q303 367 334 345T387 286T408 194Q408 100 350 48T200 -5Q107 -5 43 41Z" />
<glyph unicode="T" glyph-name="T" horiz-adv-x="454" d="M183 -2T183 20V624H39Q20 624 20 654V670Q20 700 39 700H415Q426 700 430 693T435 670V654Q435 638 431 631T415 624H273V20Q273 -2 235 -2H221Q183 -2 183 20Z" />
<glyph unicode="U" glyph-name="U" horiz-adv-x="583" d="M185 -6T127 47T68 195V680Q68 702 106 702H120Q158 702 158 680V192Q158 138 195 104T292 70Q350 70 387 104T425 192V680Q425 702 463 702H477Q515 702 515 680V195Q515 100 457 47T292 -6Q185 -6 127 47Z" />
<glyph unicode="V" glyph-name="V" horiz-adv-x="508" d="M201 -2T197 14L23 672Q22 675 21 678T20 685Q20 702 60 702H74Q107 702 111 686L235 191Q244 158 254 102H257Q260 123 277 191L400 686Q404 702 437 702H449Q489 702 489 685Q489 680 486 671L312 14Q308
-2 275 -2H233Q201 -2 197 14Z" />
<glyph unicode="W" glyph-name="W" horiz-adv-x="752" d="M163 -2T160 14L21 671L19 683Q19 702 59 702H72Q108 702 111 686L203 203L217 92H221L239 206L332 685Q336 702 368 702H388Q420 702 424 685L518 204L533 92H537L554 203L643 686Q646 702 683 702H694Q734
702 734 683L732 671L592 14Q589 -2 556 -2H516Q483 -2 480 14L392 435L378 560H374L360 435L272 14Q269 -2 236 -2H196Q163 -2 160 14Z" />
<glyph unicode="X" glyph-name="X" horiz-adv-x="506" d="M41 -2T31 2T21 15Q21 19 28 33L196 365L47 667Q40 679 40 685Q40 702 82 702H102Q117 702 126 699T140 687L255 436L375 688Q379 696 388 699T414 702H428Q450 702 460 698T470 685Q470 681 463 667L311
370L479 33Q486 19 486 15Q486 -2 444 -2H424Q393 -2 385 13L253 298L117 12Q113 4 104 1T78 -2H63Q41 -2 31 2Z" />
<glyph unicode="Y" glyph-name="Y" horiz-adv-x="484" d="M197 -2T197 20V317L27 667Q20 679 20 685Q20 702 62 702H80Q97 702 106 699T119 687L245 405L372 688Q375 696 385 699T412 702H426Q446 701 455 697T464 685Q464 678 458 667L287 314V20Q287 -2 249
-2H235Q197 -2 197 20Z" />
<glyph unicode="Z" glyph-name="Z" horiz-adv-x="507" d="M50 0T42 18T34 53Q34 59 36 65L357 624H78Q68 624 64 632T60 658V666Q60 684 64 692T78 700H444Q451 700 458 682T466 647Q466 638 465 635L146 76H447Q466 76 466 42V34Q466 0 447 0H58Q50 0 42 18Z" />
<glyph unicode="[" glyph-name="bracketleft" horiz-adv-x="239" d="M80 -138T74 -131T67 -108V738Q67 754 73 761T94 768H196Q206 768 210 762T215 739V734Q215 718 211 712T196 705H139V-76H196Q206 -76 210 -82T215 -105V-109Q215 -125 211 -131T196 -138H94Q80
-138 74 -131Z" />
<glyph unicode="\" glyph-name="backslash" horiz-adv-x="348" d="M289 -76T283 -73T272 -60L26 654Q23 661 19 674T14 691Q14 698 19 700T38 703H46Q60 703 67 700T78 686L317 -7Q334 -58 334 -63Q334 -71 328 -73T308 -76H304Q289 -76 283 -73Z" />
<glyph unicode="]" glyph-name="bracketright" horiz-adv-x="239" d="M33 -138T29 -132T24 -109V-105Q24 -89 28 -83T43 -76H101V705H43Q33 705 29 711T24 734V739Q24 755 28 761T43 768H146Q160 768 166 761T172 738V-108Q172 -124 166 -131T146 -138H43Q33 -138
29 -132Z" />
<glyph unicode="^" glyph-name="asciicircum" horiz-adv-x="360" d="M37 320T37 341Q37 345 39 355L141 664Q145 675 152 679T170 684H190Q202 684 208 680T219 664L321 355Q323 345 323 341Q323 320 300 320H292Q266 320 260 343L180 604L100 343Q93 320 69 320H60Q37
320 37 341Z" />
<glyph unicode="_" glyph-name="underscore" horiz-adv-x="427" d="M-17 -138T-17 -118V-110Q-17 -90 2 -90H425Q444 -90 444 -110V-118Q444 -138 425 -138H2Q-17 -138 -17 -118Z" />
<glyph unicode="`" glyph-name="grave" horiz-adv-x="146" d="M102 576T93 580T71 600L27 660L13 678Q11 681 6 689T0 702Q0 711 10 714T43 718Q73 718 86 712T105 692L135 621Q146 595 146 589Q146 576 124 576Q102 576 93 580Z" />
<glyph unicode="a" glyph-name="a" horiz-adv-x="481" d="M130 -6T91 34T51 149Q51 224 90 264T187 317T320 332V379Q320 413 299 435T233 457Q198 457 172 449T126 431T104 421Q94 421 82 440T69 470Q69 483 92 497T154 520T234 529Q314 529 359 489T404 378V148Q404
82 410 54T416 22Q416 10 397 5T362 -1Q347 -1 340 14T327 58Q274 -6 197 -6Q130 -6 91 34ZM279 73T320 130V259Q264 258 228 251T165 221T139 150Q139 73 214 73Q279 73 320 130Z" />
<glyph unicode="b" glyph-name="b" horiz-adv-x="482" d="M243 -6T212 13T158 69Q156 44 149 20Q145 7 138 3T117 -2H111Q78 -2 78 20V730Q78 752 116 752H127Q164 752 164 730V478Q186 503 210 516T270 529Q345 529 390 460T435 265Q435 185 416 124T361 28T278
-6Q243 -6 212 13ZM300 67T322 119T345 266Q345 455 249 455Q199 455 164 410V136Q183 103 207 85T257 67Q300 67 322 119Z" />
<glyph unicode="c" glyph-name="c" horiz-adv-x="408" d="M149 -6T98 58T46 264Q46 411 100 470T253 529Q299 529 338 515T378 483Q378 471 367 450T347 429Q346 429 336 433Q294 457 255 457Q196 457 167 413T137 266Q137 160 165 113T258 66Q304 66 341 88Q345
90 348 92T354 96Q364 96 375 77T387 45Q387 34 366 22T313 2T256 -6Q149 -6 98 58Z" />
<glyph unicode="d" glyph-name="d" horiz-adv-x="481" d="M157 -6T122 28T67 123T47 264Q47 389 92 459T212 529Q247 529 271 516T318 478V730Q318 752 355 752H366Q404 752 404 730V148Q404 85 409 55T414 21Q414 10 393 5T356 -1Q341 -1 336 13T327 45T323 69Q300
32 270 13T204 -6Q157 -6 122 28ZM250 67T274 85T318 136V410Q284 455 234 455Q136 455 136 265Q136 171 158 119T225 67Q250 67 274 85Z" />
<glyph unicode="e" glyph-name="e" horiz-adv-x="454" d="M150 -6T99 59T47 258Q47 391 97 460T244 529Q331 529 375 463T419 268Q419 259 407 243T386 227H137Q142 142 169 104T255 66Q291 66 315 76T354 97T372 108Q382 108 394 88T407 58Q407 46 387 31T331
5T256 -6Q150 -6 99 59ZM330 299Q330 457 241 457Q145 457 137 299H330Z" />
<glyph unicode="f" glyph-name="f" horiz-adv-x="286" d="M97 -2T97 20V451H68Q58 451 53 458T48 481V493Q48 509 53 516T68 523H97V629Q97 702 132 729T211 756Q237 756 258 748T280 725Q280 714 274 696T258 678Q255 678 246 681T222 684Q202 684 192 672T181
621V523H248Q259 523 263 516T268 493V481Q268 465 264 458T248 451H181V20Q181 -2 141 -2H137Q97 -2 97 20Z" />
<glyph unicode="g" glyph-name="g" horiz-adv-x="471" d="M42 -212T42 -83Q42 -41 63 -8T122 45V47Q107 59 99 78T90 120Q90 179 137 212Q62 249 62 357Q62 435 105 482T228 529Q253 529 275 523H425Q445 523 445 494V482Q445 467 441 461T425 454Q382 454 367
456L365 454Q392 411 392 358Q392 285 351 239T236 189Q164 186 164 128Q164 98 187 88T260 70L281 67Q344 58 381 27T418 -64Q418 -136 368 -174T220 -212Q42 -212 42 -83ZM267 259T291 280T315 356Q315 416 292 439T227 462Q186 462 163 439T140 356Q140 301
163 280T227 259Q267 259 291 280ZM340 -145T340 -73Q340 -45 325 -30T287 -8T227 4Q189 8 167 15Q146 3 133 -19T120 -70Q120 -145 227 -145Q340 -145 340 -73Z" />
<glyph unicode="h" glyph-name="h" horiz-adv-x="485" d="M81 -2T81 20V730Q81 752 119 752H130Q167 752 167 730V462Q188 493 219 511T289 529Q344 529 380 491T417 373V20Q417 -2 379 -2H369Q331 -2 331 20V365Q331 409 313 432T260 456Q226 456 200 432T167
386V20Q167 -2 129 -2H119Q81 -2 81 20Z" />
<glyph unicode="i" glyph-name="i" horiz-adv-x="254" d="M85 -2T85 20V503Q85 525 125 525H129Q169 525 169 503V20Q169 -2 129 -2H125Q85 -2 85 20ZM339 595T339 617V677Q339 699 383 699Q427 699 427 677V617Q427 595 383 595Q339 595 339 617Z" />
<glyph unicode="j" glyph-name="j" horiz-adv-x="249" d="M-10 -212T-10 -182Q-10 -172 -4 -154T11 -135Q15 -135 23 -137T47 -140Q85 -140 85 -72V503Q85 525 125 525H129Q169 525 169 503V-80Q169 -154 136 -183T60 -212Q-10 -212 -10 -182ZM339 595T339 617V677Q339
699 383 699Q427 699 427 677V617Q427 595 383 595Q339 595 339 617Z" />
<glyph unicode="k" glyph-name="k" horiz-adv-x="452" d="M427 17T427 12Q427 4 418 1T388 -2H368Q352 -2 346 0T334 11L178 258H172V20Q172 -2 135 -2H124Q86 -2 86 20V730Q86 752 124 752H135Q172 752 172 730V283H177L322 511Q330 525 365 525H385Q401 525
409 522T418 512Q418 504 410 491L265 271L420 28Q427 17 427 12Z" />
<glyph unicode="l" glyph-name="l" horiz-adv-x="270" d="M141 -6T109 20T76 115V730Q76 752 116 752H120Q160 752 160 730V123Q160 66 197 66Q209 66 217 68T229 71Q238 71 244 53T250 24Q250 9 228 2T182 -6Q141 -6 109 20Z" />
<glyph unicode="m" glyph-name="m" horiz-adv-x="720" d="M580 529T616 489T652 367V20Q652 -2 614 -2H604Q566 -2 566 20V359Q566 406 549 431T498 456Q467 456 443 434T408 383V367V20Q408 -2 371 -2H360Q322 -2 322 20V359Q322 406 305 431T253 456Q220 456
195 432T164 386V20Q164 -2 126 -2H115Q78 -2 78 20V373Q78 438 73 467T68 499Q68 511 89 516T126 522Q140 522 145 509T154 479T158 454Q178 488 210 508T281 529Q319 529 349 511T395 452Q419 487 453 508T525 529Q580 529 616 489Z" />
<glyph unicode="n" glyph-name="n" horiz-adv-x="482" d="M78 -2T78 20V373Q78 438 73 467T68 499Q68 511 89 516T126 522Q140 522 145 509T154 479T158 454Q181 489 214 509T284 529Q346 529 380 488T414 373V20Q414 -2 376 -2H366Q327 -2 327 20V365Q327 409
309 432T256 456Q229 456 204 437T164 386V20Q164 -2 126 -2H115Q78 -2 78 20Z" />
<glyph unicode="o" glyph-name="o" horiz-adv-x="477" d="M146 -6T97 62T47 259Q47 389 96 459T240 529Q333 529 381 460T430 259Q430 129 382 62T240 -6Q146 -6 97 62ZM291 66T316 113T342 261Q342 361 317 409T238 457Q185 457 161 410T136 261Q136 161 160
114T238 66Q291 66 316 113Z" />
<glyph unicode="p" glyph-name="p" horiz-adv-x="484" d="M78 -208T78 -186V373Q78 438 73 467T68 500Q68 512 89 517T126 522Q140 522 145 509T154 479T158 454Q181 491 211 510T277 529Q325 529 361 495T416 400T435 259Q435 134 390 64T269 -6Q235 -6 211 7T164
45V-186Q164 -208 126 -208H116Q78 -208 78 -186ZM346 68T346 258Q346 352 324 404T257 456Q232 456 208 438T164 387V113Q199 68 249 68Q346 68 346 258Z" />
<glyph unicode="q" glyph-name="q" horiz-adv-x="481" d="M318 -208T318 -186V45Q296 20 272 7T212 -6Q137 -6 92 63T47 258Q47 338 66 399T121 495T204 529Q239 529 269 510T323 454Q325 470 334 513Q339 525 365 525H371Q404 525 404 503V-186Q404 -208 366
-208H355Q318 -208 318 -186ZM284 68T317 113V387Q297 420 274 438T225 456Q181 456 159 404T136 257Q136 68 233 68Q284 68 317 113Z" />
<glyph unicode="r" glyph-name="r" horiz-adv-x="337" d="M83 -2T83 20V373Q83 439 77 467T71 499Q71 511 90 516T125 522Q139 522 145 507T155 476T160 454Q208 529 265 529Q290 529 303 519T317 490Q317 473 311 455T297 436Q292 436 279 441T248 447Q222 447
199 426T167 386V20Q167 -2 127 -2H123Q83 -2 83 20Z" />
<glyph unicode="s" glyph-name="s" horiz-adv-x="353" d="M131 -9T100 1T50 27T31 53Q31 64 44 84T65 104Q67 104 82 93T118 74T163 65Q200 65 219 83T239 138Q239 172 218 194T151 238Q96 264 70 298T43 388Q43 451 84 490T190 530Q231 530 266 517T301 487Q301
475 290 454T270 433Q268 433 247 445T195 458Q166 458 147 442T127 397Q127 365 146 345T202 307Q264 277 292 240T321 140Q321 73 277 32T167 -9Q131 -9 100 1Z" />
<glyph unicode="t" glyph-name="t" horiz-adv-x="298" d="M159 -6T125 20T91 115V451H58Q48 451 43 458T38 481V493Q38 509 43 516T58 523H91L103 628Q105 650 135 650H145Q175 650 175 628V523H241Q252 523 256 516T261 493V481Q261 465 257 458T241 451H175V129Q175
93 185 80T214 66Q227 66 236 68T248 71Q257 71 263 53T269 23Q269 7 249 1T203 -6Q159 -6 125 20Z" />
<glyph unicode="u" glyph-name="u" horiz-adv-x="482" d="M136 -7T102 31T68 138V502Q68 524 106 524H116Q154 524 154 502V151Q154 110 172 88T225 66Q253 66 277 85T318 136V502Q318 524 356 524H366Q404 524 404 502V149Q404 84 409 55T414 22Q414 10 393 5T356
0Q342 0 337 13T328 43T324 68Q301 33 268 13T198 -7Q136 -7 102 31Z" />
<glyph unicode="v" glyph-name="v" horiz-adv-x="412" d="M153 -2T148 14L25 494Q23 504 23 508Q23 525 62 525H75Q107 525 111 509L175 244Q192 173 203 108L206 88H212Q225 180 243 254L303 509Q307 525 340 525H352Q388 525 388 508Q388 506 386 494L263 14Q259
-2 227 -2H185Q153 -2 148 14Z" />
<glyph unicode="w" glyph-name="w" horiz-adv-x="616" d="M127 -2T124 14L18 488Q15 506 15 508Q15 525 56 525Q99 525 102 509L158 190L163 166L178 84H183Q186 104 203 191L264 508Q268 525 299 525H318Q350 525 354 508L416 191L422 162Q432 115 436 85H441L452
146Q458 169 461 190L516 509Q519 525 562 525Q601 525 601 508L599 491L492 14Q489 -2 456 -2H422Q389 -2 386 14L326 309Q315 367 311 398H307Q304 367 292 309L231 14Q227 -2 195 -2H160Q127 -2 124 14Z" />
<glyph unicode="x" glyph-name="x" horiz-adv-x="404" d="M26 0T21 3T16 15Q16 21 23 33L152 268L31 490Q25 504 25 508Q25 525 66 525H80Q96 525 105 522T119 510L188 367Q196 352 204 332Q212 352 219 367L289 510Q293 519 303 522T329 525H341Q380 525 380
508Q380 502 373 490L252 269L382 33Q388 19 388 15Q388 6 383 3T366 0H334Q317 0 308 2T296 12L218 172Q213 183 208 195T201 213Q194 192 184 172L106 12Q102 5 93 3T67 0H38Q26 0 21 3Z" />
<glyph unicode="y" glyph-name="y" horiz-adv-x="399" d="M385 525T385 508Q385 503 381 490L185 -187Q178 -208 145 -208H124Q92 -208 92 -192Q92 -188 96 -175L164 44L23 490Q19 502 19 508Q19 525 58 525H72Q104 525 108 509L182 238Q187 219 201 158H207L225
238L298 509Q302 525 335 525H347Q385 525 385 508Z" />
<glyph unicode="z" glyph-name="z" horiz-adv-x="405" d="M48 0T41 18T34 51Q34 56 36 62L262 451H68Q49 451 49 481V493Q49 523 68 523H350Q356 523 362 504T368 471Q368 465 366 461L141 72H351Q370 72 370 42V30Q370 0 351 0H54Q48 0 41 18Z" />
<glyph unicode="{" glyph-name="braceleft" horiz-adv-x="249" d="M137 -138T112 -112T87 -22V156Q87 207 78 234T42 274Q29 280 23 287T17 308V322Q17 335 23 342T42 356Q69 369 78 396T87 474V652Q87 715 112 741T165 768H210Q221 768 225 762T230 739V735Q230
719 226 713T210 706H193Q173 706 166 692T159 645V458Q159 400 136 366T87 314Q98 309 115 293T145 245T159 172V-14Q159 -46 166 -61T193 -76H210Q221 -76 225 -82T230 -105V-109Q230 -125 226 -131T210 -138H165Q137 -138 112 -112Z" />
<glyph unicode="|" glyph-name="bar" horiz-adv-x="200" d="M69 -140T69 -118V748Q69 770 96 770H105Q132 770 132 748V-118Q132 -140 105 -140H96Q69 -140 69 -118Z" />
<glyph unicode="}" glyph-name="braceright" horiz-adv-x="249" d="M30 -138T26 -132T21 -109V-105Q21 -89 25 -83T41 -76H57Q77 -76 84 -61T91 -14V172Q91 214 105 245T136 292T164 314Q139 331 115 365T91 458V645Q91 677 84 691T57 706H41Q30 706 26 712T21
735V739Q21 755 25 761T41 768H85Q113 768 138 742T163 652V474Q163 423 172 396T209 356Q222 350 228 343T234 322V308Q234 295 228 288T209 274Q182 261 173 234T163 156V-22Q163 -86 138 -112T85 -138H41Q30 -138 26 -132Z" />
<glyph unicode="~" glyph-name="asciitilde" horiz-adv-x="438" d="M68 226T60 231T50 240V243Q50 254 55 267Q78 324 141 324Q159 324 175 319T218 303Q239 293 255 288T290 282Q315 282 327 291T347 314T360 328Q365 328 375 322T387 311L388 306Q388 299 382
287Q368 256 347 242T293 227Q266 227 245 233T197 252Q182 258 168 263T141 268Q121 268 109 260T88 239T75 226Q68 226 60 231Z" />
<glyph unicode="&#xa0;" glyph-name="uni00A0" horiz-adv-x="137" />
<glyph unicode="&#xa1;" glyph-name="exclamdown" horiz-adv-x="246" d="M79 415T79 437V503Q79 525 117 525H135Q173 525 173 503V437Q173 415 135 415H117Q79 415 79 437ZM63 -179T63 -157Q63 -139 73 14T92 299Q93 310 99 315T122 321H131Q148 321 154 316T161
299V-157Q161 -179 123 -179H100Q63 -179 63 -157Z" />
<glyph unicode="&#xa2;" glyph-name="cent" horiz-adv-x="420" d="M386 31T353 16T282 -4V-53Q282 -71 256 -71H251Q225 -71 225 -53V-5Q134 3 90 67T45 264Q45 400 92 460T225 528V571Q225 589 251 589H256Q282 589 282 571V527Q320 523 348 511T377 483Q377
471 366 450T346 429Q345 429 335 433Q309 449 282 454V68Q313 71 340 88Q344 90 347 92T353 96Q363 96 374 77T386 45Q386 31 353 16ZM136 173T157 126T225 69V454Q181 445 159 400T136 266Q136 173 157 126Z" />
<glyph unicode="&#xa3;" glyph-name="sterling" horiz-adv-x="470" d="M50 0T45 7T40 30V46Q40 58 47 64T72 81Q97 94 111 110T126 159V339H71Q61 339 56 346T51 369V381Q51 397 56 404T71 411H126V498Q126 706 297 706Q336 706 367 699T398 674Q398 665 392 645T376
625Q371 625 353 629T313 634Q259 634 235 603T210 503V411H328Q339 411 343 404T348 381V369Q348 353 344 346T328 339H210V249Q210 159 194 123T153 72H393Q404 72 408 65T413 42V30Q413 14 409 7T393 0H60Q50 0 45 7Z" />
<glyph unicode="&#xa4;" glyph-name="currency" horiz-adv-x="470" d="M85 143T76 152L74 154Q66 162 66 171Q66 182 77 193L107 223Q81 266 81 322Q81 379 107 422L77 450Q67 460 67 472Q67 481 73 488L77 493Q83 501 93 501Q103 501 115 489L140 464Q183 500
235 500Q287 500 330 465L355 490Q365 500 375 500Q385 500 394 491L396 489Q405 480 405 472Q405 461 394 450L365 421Q391 374 391 322Q391 269 365 222L394 193Q405 182 405 172Q405 168 402 163T395 153L394 152Q385 143 376 143Q366 143 355 154L330 179Q288
145 235 145Q183 145 141 179L115 153Q105 143 94 143Q85 143 76 152ZM276 206T302 237T329 322Q329 376 303 407T235 439Q195 439 169 408T142 322Q142 268 168 237T235 206Q276 206 302 237Z" />
<glyph unicode="&#xa5;" glyph-name="yen" horiz-adv-x="490" d="M467 678T461 667L323 382H407Q426 382 426 352V345Q426 315 407 315H290V219H407Q426 219 426 189V182Q426 152 407 152H290V20Q290 -2 252 -2H238Q200 -2 200 20V152H70Q51 152 51 182V189Q51
219 70 219H200V315H70Q51 315 51 345V352Q51 382 70 382H168L30 667Q23 679 23 685Q23 702 65 702H83Q100 702 109 699T122 687L248 405L375 688Q378 696 388 699T415 702H429Q449 701 458 697T467 685Q467 678 461 667Z" />
<glyph unicode="&#xa6;" glyph-name="brokenbar" horiz-adv-x="200" d="M69 403T69 425V748Q69 770 96 770H105Q132 770 132 748V425Q132 403 105 403H96Q69 403 69 425ZM69 -140T69 -118V204Q69 226 96 226H105Q132 226 132 204V-118Q132 -140 105 -140H96Q69
-140 69 -118Z" />
<glyph unicode="&#xa7;" glyph-name="section" horiz-adv-x="355" d="M139 -6T110 2T64 23T46 47Q46 59 58 79T79 100Q81 100 94 91T126 75T166 68Q198 68 216 83T234 125Q234 147 223 162T196 185T135 218Q88 241 61 271T34 357Q34 393 50 422T94 469Q46 510
46 571Q46 635 88 670T190 705Q231 705 266 692T301 663Q301 651 290 630T270 609Q268 609 247 621T195 633Q165 633 148 619T130 577Q130 555 142 540T170 516T218 492Q268 467 297 434T326 344Q326 274 269 235Q317 192 317 130Q317 65 275 30T171 -6Q139 -6
110 2ZM216 281T229 297T243 343Q243 375 225 392T166 428Q118 414 118 361Q118 327 137 310T195 276Q216 281 229 297Z" />
<glyph unicode="&#xa8;" glyph-name="dieresis" horiz-adv-x="228" d="M21 597T11 602T0 619V675Q0 686 10 691T44 697Q67 697 77 692T88 675V619Q88 608 78 603T44 597Q21 597 11 602ZM161 597T151 602T140 619V675Q140 686 150 691T184 697Q207 697 217 692T228
675V619Q228 608 218 603T184 597Q161 597 151 602Z" />
<glyph unicode="&#xa9;" glyph-name="copyright" horiz-adv-x="592" d="M216 -5T151 37T47 161T9 354Q9 465 47 545T150 668T296 710Q377 710 442 668T545 546T583 354Q583 243 545 162T442 38T296 -5Q216 -5 151 37ZM362 43T416 79T501 186T533 354Q533 452 502
521T416 626T296 662Q230 662 176 627T91 522T59 354Q59 257 90 187T176 80T296 43Q362 43 416 79ZM231 137T194 189T157 349Q157 562 310 562Q343 562 372 550T402 525Q402 517 395 504T381 490Q380 490 362 503T310 517Q259 517 235 477T210 349Q210 263 234
223T308 182Q331 182 347 189T374 204T387 212Q394 212 401 200T408 180Q408 172 393 162T355 144T308 137Q231 137 194 189Z" />
<glyph unicode="&#xaa;" glyph-name="ordfeminine" horiz-adv-x="281" d="M71 440T50 461T29 518Q29 571 70 589T175 609V613Q175 654 129 654Q104 654 81 646T54 637Q49 637 43 653T37 677Q37 688 67 698T132 708Q184 708 210 683T237 612V517Q237 485 240 471T243
454Q243 448 226 446T198 443Q189 443 185 449T179 470Q147 440 107 440Q71 440 50 461ZM155 491T175 517V563Q136 562 115 555T93 520Q93 491 123 491Q155 491 175 517Z" />
<glyph unicode="&#xab;" glyph-name="guillemotleft" horiz-adv-x="405" d="M153 62T145 74L42 230Q31 247 31 258Q31 269 42 286L145 442Q153 454 165 454Q176 454 190 445T204 424Q204 416 197 404L105 258L197 111Q204 101 204 92Q204 82 190 72T165 62Q153
62 145 74ZM311 62T303 74L200 230Q189 247 189 258Q189 269 200 286L303 442Q311 454 323 454Q334 454 348 445T362 424Q362 416 355 404L263 258L355 111Q362 101 362 92Q362 82 348 72T323 62Q311 62 303 74Z" />
<glyph unicode="&#xac;" glyph-name="logicalnot" horiz-adv-x="449" d="M344 77T344 99V265H50Q40 265 35 272T30 295V308Q30 324 35 331T50 338H389Q405 338 412 331T419 308V99Q419 77 389 77H374Q344 77 344 99Z" />
<glyph unicode="&#xad;" glyph-name="uni00AD" horiz-adv-x="254" d="M30 230T30 260V270Q30 300 49 300H205Q224 300 224 270V260Q224 230 205 230H49Q30 230 30 260Z" />
<glyph unicode="&#xae;" glyph-name="registered" horiz-adv-x="592" d="M216 -5T151 37T47 161T9 354Q9 465 47 545T150 668T296 710Q377 710 442 668T545 546T583 354Q583 243 545 162T442 38T296 -5Q216 -5 151 37ZM362 43T416 79T501 186T533 354Q533 452
502 521T416 626T296 662Q230 662 176 627T91 522T59 354Q59 257 90 187T176 80T296 43Q362 43 416 79ZM197 145T197 158V541Q197 559 213 559H295Q352 559 380 535T408 455Q408 418 394 393T354 355V353Q366 347 375 329T394 279L430 163Q432 159 432 154Q432
145 410 145H400Q392 145 386 147T379 154L344 270Q334 304 321 316T282 328H249V158Q249 145 227 145H219Q197 145 197 158ZM303 373Q324 373 339 394T354 445Q354 480 340 497T300 514H248V373H303Z" />
<glyph unicode="&#xaf;" glyph-name="overscore" horiz-adv-x="237" d="M0 612T0 642V652Q0 682 19 682H218Q228 682 232 675T237 652V642Q237 626 233 619T218 612H19Q0 612 0 642Z" />
<glyph unicode="&#xb0;" glyph-name="degree" horiz-adv-x="276" d="M90 441T61 477T31 573Q31 634 60 670T137 706Q184 706 213 670T243 573Q243 513 214 477T137 441Q90 441 61 477ZM163 486T178 509T194 573Q194 614 179 637T136 661Q109 661 94 638T78 573Q78
532 93 509T136 486Q163 486 178 509Z" />
<glyph unicode="&#xb1;" glyph-name="plusminus" horiz-adv-x="449" d="M206 134T199 139T192 154V327H55Q45 327 40 334T35 357V364Q35 380 40 387T55 394H192V573Q192 584 199 588T222 593H229Q245 593 252 589T259 573V394H394Q405 394 409 387T414 364V357Q414
341 410 334T394 327H259V154Q259 144 252 139T229 134H222Q206 134 199 139ZM43 1T39 7T35 28V41Q35 55 39 61T53 68H396Q406 68 410 62T414 41V28Q414 14 410 8T396 1H53Q43 1 39 7Z" />
<glyph unicode="&#xb2;" glyph-name="uni00B2" horiz-adv-x="280" d="M30 350T27 357T24 372Q24 383 27 387L161 578Q182 608 189 623T196 656Q196 684 179 699T131 715Q109 715 94 709T68 694T53 685Q49 685 42 696T34 714Q34 730 67 743T133 757Q183 757 214
731T245 660Q245 632 236 613T196 551L84 391H236Q247 391 247 374V367Q247 350 236 350H35Q30 350 27 357Z" />
<glyph unicode="&#xb3;" glyph-name="uni00B3" horiz-adv-x="280" d="M86 344T55 354T23 377Q23 385 30 395T43 406Q46 406 68 396T119 385Q151 385 175 404T199 467Q199 508 178 525T116 542H93Q81 542 81 560V566Q81 583 93 583H114Q151 583 169 607T187 659Q187
681 173 698T122 715Q93 715 75 706T54 696Q49 696 42 708T35 726Q35 739 65 748T124 757Q176 757 206 731T236 658Q236 599 176 574V572Q205 564 227 536T250 463Q250 406 215 375T126 344Q86 344 55 354Z" />
<glyph unicode="&#xb4;" glyph-name="acute" horiz-adv-x="146" d="M0 576T0 589Q0 595 11 621L41 692Q47 706 60 712T103 718Q126 718 136 715T146 702Q146 697 141 689T133 678L119 660L75 600Q63 584 54 580T22 576Q0 576 0 589Z" />
<glyph unicode="&#xb5;" glyph-name="uni00B5" horiz-adv-x="453" d="M395 82T399 54T404 22Q404 10 383 5T344 -1Q332 -1 327 13T319 45T315 69Q292 34 260 14T191 -6Q164 -6 140 10Q148 -33 150 -76T152 -186Q152 -208 115 -208H104Q66 -208 66 -186V503Q66
525 104 525H115Q152 525 152 503V164Q152 118 170 93T222 67Q247 67 270 85T309 137V503Q309 525 347 525H357Q395 525 395 503V148Q395 82 399 54Z" />
<glyph unicode="&#xb6;" glyph-name="paragraph" horiz-adv-x="466" d="M208 -173T208 -151V224Q158 231 118 264T53 350T29 462Q29 526 56 581T131 668T233 700H440Q451 700 455 695T460 676V662Q460 649 456 644T440 638H410V-151Q410 -173 386 -173H372Q348
-173 348 -151V638H270V-151Q270 -173 246 -173H232Q208 -173 208 -151Z" />
<glyph unicode="&#xb7;" glyph-name="middot" horiz-adv-x="214" d="M86 309T72 323T57 360Q57 382 71 397T107 412Q129 412 143 397T158 360Q158 338 144 324T107 309Q86 309 72 323Z" />
<glyph unicode="&#xb8;" glyph-name="cedilla" horiz-adv-x="190" d="M152 -62T171 -80T190 -129Q190 -175 161 -192T95 -210Q58 -210 29 -200T0 -171Q0 -149 19 -149Q27 -149 42 -154Q71 -163 90 -163Q106 -163 118 -156T131 -128Q131 -113 122 -106T97 -94Q85
-90 79 -87T73 -76Q73 -70 85 -35L96 0H138L121 -56Q152 -62 171 -80Z" />
<glyph unicode="&#xb9;" glyph-name="uni00B9" horiz-adv-x="280" d="M136 348T130 351T124 362V705L60 691Q54 691 51 700T48 721Q48 729 57 732L158 758Q164 758 169 755T174 746V362Q174 348 153 348H145Q136 348 130 351Z" />
<glyph unicode="&#xba;" glyph-name="ordmasculine" horiz-adv-x="292" d="M94 440T66 474T38 573Q38 638 66 673T147 708Q199 708 227 673T255 573Q255 508 227 474T147 440Q94 440 66 474ZM176 484T189 506T203 574Q203 620 190 642T146 664Q117 664 104 642T90
574Q90 528 103 506T146 484Q176 484 189 506Z" />
<glyph unicode="&#xbb;" glyph-name="guillemotright" horiz-adv-x="405" d="M65 62T51 71T36 92Q36 101 43 111L136 258L43 404Q36 416 36 424Q36 436 50 445T76 454Q87 454 95 442L198 286Q209 269 209 258Q209 247 198 230L95 74Q87 62 76 62Q65 62 51 71ZM222
62T208 71T193 92Q193 101 200 111L293 258L200 404Q193 416 193 424Q193 436 207 445T233 454Q244 454 252 442L355 286Q366 269 366 258Q366 247 355 230L252 74Q244 62 233 62Q222 62 208 71Z" />
<glyph unicode="&#xbc;" glyph-name="onequarter" horiz-adv-x="675" d="M364 288T358 291T352 302V645L288 631Q282 631 279 640T276 661Q276 669 285 672L386 698Q392 698 397 695T402 686V302Q402 288 381 288H373Q364 288 358 291ZM559 -2T559 11V96H416Q411
96 407 105T402 124Q402 129 405 133L558 397Q560 401 566 403T578 405H589Q607 405 607 392V137H639Q650 137 650 120V113Q650 96 639 96H607V11Q607 -2 589 -2H576Q559 -2 559 11ZM559 137V253Q559 293 564 323L561 324L454 137H559ZM138 -2T138 5Q138 7 142
15L454 686Q462 703 477 703H493Q506 703 506 696Q506 692 503 686L188 10Q183 -2 166 -2H151Q138 -2 138 5Z" />
<glyph unicode="&#xbd;" glyph-name="onehalf" horiz-adv-x="675" d="M364 288T358 291T352 302V645L288 631Q282 631 279 640T276 661Q276 669 285 672L386 698Q392 698 397 695T402 686V302Q402 288 381 288H373Q364 288 358 291ZM408 0T405 7T402 22Q402 33
405 37L539 228Q560 258 567 273T574 306Q574 334 557 349T509 365Q487 365 472 359T446 344T431 335Q427 335 420 346T412 364Q412 380 445 393T511 407Q561 407 592 381T623 310Q623 282 614 263T574 201L462 41H614Q625 41 625 24V17Q625 0 614 0H413Q408 0
405 7ZM111 -2T111 5Q111 7 115 15L427 686Q435 703 450 703H466Q479 703 479 696Q479 692 476 686L161 10Q156 -2 139 -2H124Q111 -2 111 5Z" />
<glyph unicode="&#xbe;" glyph-name="threequarters" horiz-adv-x="675" d="M332 284T301 294T269 317Q269 325 276 335T289 346Q292 346 314 336T365 325Q397 325 421 344T445 407Q445 448 424 465T362 482H339Q327 482 327 500V506Q327 523 339 523H360Q397
523 415 547T433 599Q433 621 419 638T368 655Q339 655 321 646T300 636Q295 636 288 648T281 666Q281 679 311 688T370 697Q422 697 452 671T482 598Q482 539 422 514V512Q451 504 473 476T496 403Q496 346 461 315T372 284Q332 284 301 294ZM559 -2T559 11V96H416Q411
96 407 105T402 124Q402 129 405 133L558 397Q560 401 566 403T578 405H589Q607 405 607 392V137H639Q650 137 650 120V113Q650 96 639 96H607V11Q607 -2 589 -2H576Q559 -2 559 11ZM559 137V253Q559 293 564 323L561 324L454 137H559ZM177 -2T177 5Q177 7 181
15L493 686Q501 703 516 703H532Q545 703 545 696Q545 692 542 686L227 10Q222 -2 205 -2H190Q177 -2 177 5Z" />
<glyph unicode="&#xbf;" glyph-name="questiondown" horiz-adv-x="391" d="M287 525T287 503V437Q287 415 247 415H230Q190 415 190 437V503Q190 525 230 525H247Q287 525 287 503ZM274 321T274 298Q274 264 253 221T192 134Q149 86 130 56T110 -11Q110 -59 137
-84T218 -109Q261 -109 308 -83Q311 -82 318 -79T329 -75Q336 -75 348 -95T361 -126Q361 -150 312 -166T209 -183Q151 -183 107 -162T39 -103T15 -19Q15 14 28 44T59 98T110 160Q152 208 171 237T196 301Q198 311 205 316T229 321H244Q274 321 274 298Z" />
<glyph unicode="&#xc0;" glyph-name="Agrave" horiz-adv-x="505" d="M13 -2T13 15Q13 18 15 28L196 683Q202 702 236 702H268Q304 702 308 683L489 28Q492 21 492 15Q492 7 483 3T455 -2H438Q406 -2 402 14L359 178H144L102 14Q98 -2 66 -2H50Q13 -2 13 15ZM337
254L266 528Q263 541 255 589H250Q248 582 246 566L238 528L167 254H337ZM256 752T248 754T232 765L185 819Q178 827 173 835T167 849Q167 864 209 864Q234 864 245 859T264 841L296 782Q303 768 303 763Q303 752 275 752Q256 752 248 754Z" />
<glyph unicode="&#xc1;" glyph-name="Aacute" horiz-adv-x="505" d="M13 -2T13 15Q13 18 15 28L196 683Q202 702 236 702H268Q304 702 308 683L489 28Q492 21 492 15Q492 7 483 3T455 -2H438Q406 -2 402 14L359 178H144L102 14Q98 -2 66 -2H50Q13 -2 13 15ZM337
254L266 528Q263 541 255 589H250Q248 582 246 566L238 528L167 254H337ZM197 752T197 763Q197 768 204 782L236 841Q243 854 254 859T291 864Q333 864 333 849Q333 843 328 835T315 819L268 765Q261 757 253 755T225 752Q197 752 197 763Z" />
<glyph unicode="&#xc2;" glyph-name="Acircumflex" horiz-adv-x="505" d="M13 -2T13 15Q13 18 15 28L196 683Q202 702 236 702H268Q304 702 308 683L489 28Q492 21 492 15Q492 7 483 3T455 -2H438Q406 -2 402 14L359 178H144L102 14Q98 -2 66 -2H50Q13 -2 13 15ZM337
254L266 528Q263 541 255 589H250Q248 582 246 566L238 528L167 254H337ZM138 742T138 753Q138 760 152 784L180 831Q188 845 200 849T240 854H266Q293 854 306 849T326 831L352 786Q368 758 368 753Q368 742 346 742Q328 742 319 744T303 753L253 799L206 755Q198
747 189 745T160 742Q138 742 138 753Z" />
<glyph unicode="&#xc3;" glyph-name="Atilde" horiz-adv-x="505" d="M13 -2T13 15Q13 18 15 28L196 683Q202 702 236 702H268Q304 702 308 683L489 28Q492 21 492 15Q492 7 483 3T455 -2H438Q406 -2 402 14L359 178H144L102 14Q98 -2 66 -2H50Q13 -2 13 15ZM337
254L266 528Q263 541 255 589H250Q248 582 246 566L238 528L167 254H337ZM126 758T115 764T103 777Q103 783 106 790Q120 827 141 842T193 858Q210 858 226 853T262 836Q283 826 293 822T317 818Q330 818 338 825T355 844Q365 858 372 858Q380 858 391 852T403
839Q403 833 395 817Q367 758 313 758Q293 758 278 763T239 780Q207 798 186 798Q175 798 168 792T152 773Q141 758 134 758Q126 758 115 764Z" />
<glyph unicode="&#xc4;" glyph-name="Adieresis" horiz-adv-x="505" d="M13 -2T13 15Q13 18 15 28L196 683Q202 702 236 702H268Q304 702 308 683L489 28Q492 21 492 15Q492 7 483 3T455 -2H438Q406 -2 402 14L359 178H144L102 14Q98 -2 66 -2H50Q13 -2 13 15ZM337
254L266 528Q263 541 255 589H250Q248 582 246 566L238 528L167 254H337ZM156 758T146 763T136 780V836Q136 847 146 852T178 858Q200 858 210 853T220 836V780Q220 769 210 764T178 758Q156 758 146 763ZM306 758T296 763T286 780V836Q286 847 296 852T328 858Q350
858 360 853T370 836V780Q370 769 360 764T328 758Q306 758 296 763Z" />
<glyph unicode="&#xc5;" glyph-name="Aring" horiz-adv-x="505" d="M13 -2T13 15Q13 18 15 28L196 683Q202 702 236 702H268Q304 702 308 683L489 28Q492 21 492 15Q492 7 483 3T455 -2H438Q406 -2 402 14L359 178H144L102 14Q98 -2 66 -2H50Q13 -2 13 15ZM337
254L266 528Q263 541 255 589H250Q248 582 246 566L238 528L167 254H337ZM216 747T192 771T168 831Q168 867 192 891T252 916Q288 916 312 892T337 831Q337 795 313 771T252 747Q216 747 192 771ZM269 792T280 803T292 831Q292 848 281 859T252 871Q235 871 224
860T213 831Q213 815 224 804T252 792Q269 792 280 803Z" />
<glyph unicode="&#xc6;" glyph-name="AE" horiz-adv-x="746" d="M1 -2T1 15Q1 23 5 31L261 673Q267 687 275 693T296 700H658Q677 700 677 670V654Q677 624 658 624H382L417 396H635Q654 396 654 366V350Q654 320 635 320H429L467 76H659Q678 76 678 46V30Q678
0 659 0H416Q391 0 387 29L365 178H149L86 14Q80 -2 53 -2H39Q1 -2 1 15ZM352 253L311 526L309 584H307L288 526L181 253H352Z" />
<glyph unicode="&#xc7;" glyph-name="Ccedilla" horiz-adv-x="459" d="M409 99T412 99Q425 99 432 82T440 48Q440 38 435 30T416 15Q401 7 373 1T313 -6L298 -56Q329 -62 348 -80T367 -129Q367 -175 338 -192T272 -210Q235 -210 206 -200T177 -171Q177 -149 196
-149Q204 -149 219 -154Q248 -163 267 -163Q283 -163 295 -156T308 -128Q308 -113 299 -106T274 -94Q262 -90 256 -87T250 -76Q250 -73 260 -40L272 -4Q158 7 104 93T49 350Q49 531 113 618T310 706Q338 706 365 701T411 687Q421 683 424 677T428 660Q428 643 420
621T397 607Q355 628 310 628Q224 628 183 561T142 351Q142 208 182 140T309 72Q361 72 403 97Q409 99 412 99Z" />
<glyph unicode="&#xc8;" glyph-name="Egrave" horiz-adv-x="457" d="M92 0T86 7T79 30V670Q79 686 85 693T106 700H394Q413 700 413 670V654Q413 624 394 624H169V396H371Q390 396 390 366V350Q390 320 371 320H169V76H394Q404 76 408 69T413 46V30Q413 14 409
7T394 0H106Q92 0 86 7ZM249 752T241 754T225 765L178 819Q171 827 166 835T160 849Q160 864 202 864Q227 864 238 859T257 841L289 782Q296 768 296 763Q296 752 268 752Q249 752 241 754Z" />
<glyph unicode="&#xc9;" glyph-name="Eacute" horiz-adv-x="457" d="M92 0T86 7T79 30V670Q79 686 85 693T106 700H394Q413 700 413 670V654Q413 624 394 624H169V396H371Q390 396 390 366V350Q390 320 371 320H169V76H394Q404 76 408 69T413 46V30Q413 14 409
7T394 0H106Q92 0 86 7ZM190 752T190 763Q190 768 197 782L229 841Q236 854 247 859T284 864Q326 864 326 849Q326 843 321 835T308 819L261 765Q254 757 246 755T218 752Q190 752 190 763Z" />
<glyph unicode="&#xca;" glyph-name="Ecircumflex" horiz-adv-x="457" d="M92 0T86 7T79 30V670Q79 686 85 693T106 700H394Q413 700 413 670V654Q413 624 394 624H169V396H371Q390 396 390 366V350Q390 320 371 320H169V76H394Q404 76 408 69T413 46V30Q413 14
409 7T394 0H106Q92 0 86 7ZM131 742T131 753Q131 760 145 784L173 831Q181 845 193 849T233 854H259Q286 854 299 849T319 831L345 786Q361 758 361 753Q361 742 339 742Q321 742 312 744T296 753L246 799L199 755Q191 747 182 745T153 742Q131 742 131 753Z"
/>
<glyph unicode="&#xcb;" glyph-name="Edieresis" horiz-adv-x="457" d="M92 0T86 7T79 30V670Q79 686 85 693T106 700H394Q413 700 413 670V654Q413 624 394 624H169V396H371Q390 396 390 366V350Q390 320 371 320H169V76H394Q404 76 408 69T413 46V30Q413 14
409 7T394 0H106Q92 0 86 7ZM149 758T139 763T129 780V836Q129 847 139 852T171 858Q193 858 203 853T213 836V780Q213 769 203 764T171 758Q149 758 139 763ZM299 758T289 763T279 780V836Q279 847 289 852T321 858Q343 858 353 853T363 836V780Q363 769 353 764T321
758Q299 758 289 763Z" />
<glyph unicode="&#xcc;" glyph-name="Igrave" horiz-adv-x="262" d="M86 -2T86 20V680Q86 702 124 702H139Q176 702 176 680V20Q176 -2 139 -2H124Q86 -2 86 20ZM134 752T126 754T110 765L63 819Q56 827 51 835T45 849Q45 864 87 864Q112 864 123 859T142 841L174
782Q181 768 181 763Q181 752 153 752Q134 752 126 754Z" />
<glyph unicode="&#xcd;" glyph-name="Iacute" horiz-adv-x="262" d="M86 -2T86 20V680Q86 702 124 702H139Q176 702 176 680V20Q176 -2 139 -2H124Q86 -2 86 20ZM75 752T75 763Q75 768 82 782L114 841Q121 854 132 859T169 864Q211 864 211 849Q211 843 206 835T193
819L146 765Q139 757 131 755T103 752Q75 752 75 763Z" />
<glyph unicode="&#xce;" glyph-name="Icircumflex" horiz-adv-x="262" d="M86 -2T86 20V680Q86 702 124 702H139Q176 702 176 680V20Q176 -2 139 -2H124Q86 -2 86 20ZM16 742T16 753Q16 760 30 784L58 831Q66 845 78 849T118 854H144Q171 854 184 849T204 831L230
786Q246 758 246 753Q246 742 224 742Q206 742 197 744T181 753L131 799L84 755Q76 747 67 745T38 742Q16 742 16 753Z" />
<glyph unicode="&#xcf;" glyph-name="Idieresis" horiz-adv-x="262" d="M86 -2T86 20V680Q86 702 124 702H139Q176 702 176 680V20Q176 -2 139 -2H124Q86 -2 86 20ZM34 758T24 763T14 780V836Q14 847 24 852T56 858Q78 858 88 853T98 836V780Q98 769 88 764T56
758Q34 758 24 763ZM184 758T174 763T164 780V836Q164 847 174 852T206 858Q228 858 238 853T248 836V780Q248 769 238 764T206 758Q184 758 174 763Z" />
<glyph unicode="&#xd0;" glyph-name="Eth" horiz-adv-x="573" d="M524 700T524 350Q524 0 273 0H105Q91 0 85 7T78 30V320H29Q10 320 10 350V366Q10 396 29 396H78V670Q78 686 84 693T105 700H273Q524 700 524 350ZM346 76T389 141T432 350Q432 492 389 558T271
624H169V396H280Q299 396 299 366V350Q299 320 280 320H169V76H271Q346 76 389 141Z" />
<glyph unicode="&#xd1;" glyph-name="Ntilde" horiz-adv-x="590" d="M73 -2T73 20V680Q73 702 111 702H135Q150 702 159 698T174 682L406 235Q420 209 432 172L437 174Q429 209 429 240V680Q429 702 467 702H479Q517 702 517 680V20Q517 -2 479 -2H458Q430 -2
422 13L184 475Q170 501 158 538L153 536Q161 501 161 470V20Q161 -2 123 -2H111Q73 -2 73 20ZM168 758T157 764T145 777Q145 783 148 790Q162 827 183 842T235 858Q252 858 268 853T304 836Q325 826 335 822T359 818Q372 818 380 825T397 844Q407 858 414 858Q422
858 433 852T445 839Q445 833 437 817Q409 758 355 758Q335 758 320 763T281 780Q249 798 228 798Q217 798 210 792T194 773Q183 758 176 758Q168 758 157 764Z" />
<glyph unicode="&#xd2;" glyph-name="Ograve" horiz-adv-x="599" d="M177 -6T113 83T49 352Q49 706 299 706Q550 706 550 352Q550 172 486 83T299 -6Q177 -6 113 83ZM458 70T458 352Q458 630 300 630Q221 630 182 563T142 352Q142 70 300 70Q458 70 458 352ZM303
752T295 754T279 765L232 819Q225 827 220 835T214 849Q214 864 256 864Q281 864 292 859T311 841L343 782Q350 768 350 763Q350 752 322 752Q303 752 295 754Z" />
<glyph unicode="&#xd3;" glyph-name="Oacute" horiz-adv-x="599" d="M177 -6T113 83T49 352Q49 706 299 706Q550 706 550 352Q550 172 486 83T299 -6Q177 -6 113 83ZM458 70T458 352Q458 630 300 630Q221 630 182 563T142 352Q142 70 300 70Q458 70 458 352ZM244
752T244 763Q244 768 251 782L283 841Q290 854 301 859T338 864Q380 864 380 849Q380 843 375 835T362 819L315 765Q308 757 300 755T272 752Q244 752 244 763Z" />
<glyph unicode="&#xd4;" glyph-name="Ocircumflex" horiz-adv-x="599" d="M177 -6T113 83T49 352Q49 706 299 706Q550 706 550 352Q550 172 486 83T299 -6Q177 -6 113 83ZM458 70T458 352Q458 630 300 630Q221 630 182 563T142 352Q142 70 300 70Q458 70 458 352ZM185
742T185 753Q185 760 199 784L227 831Q235 845 247 849T287 854H313Q340 854 353 849T373 831L399 786Q415 758 415 753Q415 742 393 742Q375 742 366 744T350 753L300 799L253 755Q245 747 236 745T207 742Q185 742 185 753Z" />
<glyph unicode="&#xd5;" glyph-name="Otilde" horiz-adv-x="599" d="M177 -6T113 83T49 352Q49 706 299 706Q550 706 550 352Q550 172 486 83T299 -6Q177 -6 113 83ZM458 70T458 352Q458 630 300 630Q221 630 182 563T142 352Q142 70 300 70Q458 70 458 352ZM173
758T162 764T150 777Q150 783 153 790Q167 827 188 842T240 858Q257 858 273 853T309 836Q330 826 340 822T364 818Q377 818 385 825T402 844Q412 858 419 858Q427 858 438 852T450 839Q450 833 442 817Q414 758 360 758Q340 758 325 763T286 780Q254 798 233 798Q222
798 215 792T199 773Q188 758 181 758Q173 758 162 764Z" />
<glyph unicode="&#xd6;" glyph-name="Odieresis" horiz-adv-x="599" d="M177 -6T113 83T49 352Q49 706 299 706Q550 706 550 352Q550 172 486 83T299 -6Q177 -6 113 83ZM458 70T458 352Q458 630 300 630Q221 630 182 563T142 352Q142 70 300 70Q458 70 458 352ZM203
758T193 763T183 780V836Q183 847 193 852T225 858Q247 858 257 853T267 836V780Q267 769 257 764T225 758Q203 758 193 763ZM353 758T343 763T333 780V836Q333 847 343 852T375 858Q397 858 407 853T417 836V780Q417 769 407 764T375 758Q353 758 343 763Z" />
<glyph unicode="&#xd7;" glyph-name="multiply" horiz-adv-x="448" d="M71 1T54 14T36 37Q36 42 46 56L176 227L46 398Q36 412 36 417Q36 425 53 439T80 453Q86 453 92 446L222 273L351 446Q357 453 364 453Q372 453 390 439T408 418Q408 412 397 398L268 227L397
56Q408 43 408 36Q408 29 391 15T364 1Q357 1 351 8L222 181L92 8Q86 1 80 1Q71 1 54 14Z" />
<glyph unicode="&#xd8;" glyph-name="Oslash" horiz-adv-x="599" d="M550 532T550 352Q550 172 486 83T299 -6Q197 -6 136 55L99 -6Q92 -18 84 -18Q77 -18 69 -12T61 1Q61 9 66 15L110 87Q49 177 49 352Q49 706 299 706Q397 706 458 651L491 705Q497 716 506 716Q514
716 521 711T529 697Q529 692 525 685L485 620Q550 532 550 352ZM142 243T165 176L410 574Q372 630 300 630Q221 630 182 563T142 352Q142 243 165 176ZM458 70T458 352Q458 465 432 534L185 134Q225 70 300 70Q458 70 458 352Z" />
<glyph unicode="&#xd9;" glyph-name="Ugrave" horiz-adv-x="583" d="M185 -6T127 47T68 195V680Q68 702 106 702H120Q158 702 158 680V192Q158 138 195 104T292 70Q350 70 387 104T425 192V680Q425 702 463 702H477Q515 702 515 680V195Q515 100 457 47T292 -6Q185
-6 127 47ZM295 752T287 754T271 765L224 819Q217 827 212 835T206 849Q206 864 248 864Q273 864 284 859T303 841L335 782Q342 768 342 763Q342 752 314 752Q295 752 287 754Z" />
<glyph unicode="&#xda;" glyph-name="Uacute" horiz-adv-x="583" d="M185 -6T127 47T68 195V680Q68 702 106 702H120Q158 702 158 680V192Q158 138 195 104T292 70Q350 70 387 104T425 192V680Q425 702 463 702H477Q515 702 515 680V195Q515 100 457 47T292 -6Q185
-6 127 47ZM236 752T236 763Q236 768 243 782L275 841Q282 854 293 859T330 864Q372 864 372 849Q372 843 367 835T354 819L307 765Q300 757 292 755T264 752Q236 752 236 763Z" />
<glyph unicode="&#xdb;" glyph-name="Ucircumflex" horiz-adv-x="583" d="M185 -6T127 47T68 195V680Q68 702 106 702H120Q158 702 158 680V192Q158 138 195 104T292 70Q350 70 387 104T425 192V680Q425 702 463 702H477Q515 702 515 680V195Q515 100 457 47T292
-6Q185 -6 127 47ZM177 742T177 753Q177 760 191 784L219 831Q227 845 239 849T279 854H305Q332 854 345 849T365 831L391 786Q407 758 407 753Q407 742 385 742Q367 742 358 744T342 753L292 799L245 755Q237 747 228 745T199 742Q177 742 177 753Z" />
<glyph unicode="&#xdc;" glyph-name="Udieresis" horiz-adv-x="583" d="M185 -6T127 47T68 195V680Q68 702 106 702H120Q158 702 158 680V192Q158 138 195 104T292 70Q350 70 387 104T425 192V680Q425 702 463 702H477Q515 702 515 680V195Q515 100 457 47T292
-6Q185 -6 127 47ZM195 758T185 763T175 780V836Q175 847 185 852T217 858Q239 858 249 853T259 836V780Q259 769 249 764T217 758Q195 758 185 763ZM345 758T335 763T325 780V836Q325 847 335 852T367 858Q389 858 399 853T409 836V780Q409 769 399 764T367 758Q345
758 335 763Z" />
<glyph unicode="&#xdd;" glyph-name="Yacute" horiz-adv-x="484" d="M197 -2T197 20V317L27 667Q20 679 20 685Q20 702 62 702H80Q97 702 106 699T119 687L245 405L372 688Q375 696 385 699T412 702H426Q446 701 455 697T464 685Q464 678 458 667L287 314V20Q287
-2 249 -2H235Q197 -2 197 20ZM186 752T186 763Q186 768 193 782L225 841Q232 854 243 859T280 864Q322 864 322 849Q322 843 317 835T304 819L257 765Q250 757 242 755T214 752Q186 752 186 763Z" />
<glyph unicode="&#xde;" glyph-name="Thorn" horiz-adv-x="482" d="M73 -2T73 20V680Q73 702 111 702H125Q163 702 163 680V579H265Q336 579 391 537T447 383Q447 300 416 254T345 193T273 177H163V20Q163 -2 125 -2H111Q73 -2 73 20ZM268 253Q300 253 327 282T354
383Q354 450 327 476T260 503H163V253H268Z" />
<glyph unicode="&#xdf;" glyph-name="germandbls" horiz-adv-x="480" d="M80 -2T80 20V532Q80 611 124 658T248 706Q320 706 367 666T414 541Q414 490 391 448T328 387V384Q380 369 407 321T435 204Q435 108 386 54T257 0H234Q215 0 215 30V42Q215 72 234 72H255Q295
72 321 108T347 205Q347 267 320 303T251 340H234Q215 340 215 370V382Q215 412 233 412H239Q274 412 299 446T324 533Q324 587 302 610T245 634Q207 634 187 608T166 532V20Q166 -2 129 -2H118Q80 -2 80 20Z" />
<glyph unicode="&#xe0;" glyph-name="agrave" horiz-adv-x="481" d="M130 -6T91 34T51 149Q51 224 90 264T187 317T320 332V379Q320 413 299 435T233 457Q198 457 172 449T126 431T104 421Q94 421 82 440T69 470Q69 483 92 497T154 520T234 529Q314 529 359 489T404
378V148Q404 82 410 54T416 22Q416 10 397 5T362 -1Q347 -1 340 14T327 58Q274 -6 197 -6Q130 -6 91 34ZM279 73T320 130V259Q264 258 228 251T165 221T139 150Q139 73 214 73Q279 73 320 130ZM247 576T238 580T216 600L172 660L158 678Q156 681 151 689T145 702Q145
711 155 714T188 718Q218 718 231 712T250 692L280 621Q291 595 291 589Q291 576 269 576Q247 576 238 580Z" />
<glyph unicode="&#xe1;" glyph-name="aacute" horiz-adv-x="481" d="M130 -6T91 34T51 149Q51 224 90 264T187 317T320 332V379Q320 413 299 435T233 457Q198 457 172 449T126 431T104 421Q94 421 82 440T69 470Q69 483 92 497T154 520T234 529Q314 529 359 489T404
378V148Q404 82 410 54T416 22Q416 10 397 5T362 -1Q347 -1 340 14T327 58Q274 -6 197 -6Q130 -6 91 34ZM279 73T320 130V259Q264 258 228 251T165 221T139 150Q139 73 214 73Q279 73 320 130ZM183 576T183 589Q183 595 194 621L224 692Q230 706 243 712T286 718Q309
718 319 715T329 702Q329 697 324 689T316 678L302 660L258 600Q246 584 237 580T205 576Q183 576 183 589Z" />
<glyph unicode="&#xe2;" glyph-name="acircumflex" horiz-adv-x="481" d="M130 -6T91 34T51 149Q51 224 90 264T187 317T320 332V379Q320 413 299 435T233 457Q198 457 172 449T126 431T104 421Q94 421 82 440T69 470Q69 483 92 497T154 520T234 529Q314 529 359
489T404 378V148Q404 82 410 54T416 22Q416 10 397 5T362 -1Q347 -1 340 14T327 58Q274 -6 197 -6Q130 -6 91 34ZM279 73T320 130V259Q264 258 228 251T165 221T139 150Q139 73 214 73Q279 73 320 130ZM135 576T135 589Q135 595 146 621L176 692Q182 705 193 711T228
718H259Q282 718 293 712T311 692L341 621Q352 595 352 589Q352 576 330 576Q310 576 302 579T282 600L244 656L205 600Q194 583 186 580T157 576Q135 576 135 589Z" />
<glyph unicode="&#xe3;" glyph-name="atilde" horiz-adv-x="481" d="M130 -6T91 34T51 149Q51 224 90 264T187 317T320 332V379Q320 413 299 435T233 457Q198 457 172 449T126 431T104 421Q94 421 82 440T69 470Q69 483 92 497T154 520T234 529Q314 529 359 489T404
378V148Q404 82 410 54T416 22Q416 10 397 5T362 -1Q347 -1 340 14T327 58Q274 -6 197 -6Q130 -6 91 34ZM279 73T320 130V259Q264 258 228 251T165 221T139 150Q139 73 214 73Q279 73 320 130ZM117 599T106 604T94 617Q94 623 97 630Q112 663 135 678T185 693Q211
693 255 673Q289 658 304 658Q321 658 331 665T349 685T361 697Q370 697 382 691T394 679Q394 671 383 649Q370 624 353 613T303 602Q287 602 271 607T229 622Q195 637 181 637Q167 637 158 631T140 612T125 599Q117 599 106 604Z" />
<glyph unicode="&#xe4;" glyph-name="adieresis" horiz-adv-x="481" d="M130 -6T91 34T51 149Q51 224 90 264T187 317T320 332V379Q320 413 299 435T233 457Q198 457 172 449T126 431T104 421Q94 421 82 440T69 470Q69 483 92 497T154 520T234 529Q314 529 359
489T404 378V148Q404 82 410 54T416 22Q416 10 397 5T362 -1Q347 -1 340 14T327 58Q274 -6 197 -6Q130 -6 91 34ZM279 73T320 130V259Q264 258 228 251T165 221T139 150Q139 73 214 73Q279 73 320 130ZM151 597T141 602T130 619V675Q130 686 140 691T174 697Q197
697 207 692T218 675V619Q218 608 208 603T174 597Q151 597 141 602ZM291 597T281 602T270 619V675Q270 686 280 691T314 697Q337 697 347 692T358 675V619Q358 608 348 603T314 597Q291 597 281 602Z" />
<glyph unicode="&#xe5;" glyph-name="aring" horiz-adv-x="481" d="M130 -6T91 34T51 149Q51 224 90 264T187 317T320 332V379Q320 413 299 435T233 457Q198 457 172 449T126 431T104 421Q94 421 82 440T69 470Q69 483 92 497T154 520T234 529Q314 529 359 489T404
378V148Q404 82 410 54T416 22Q416 10 397 5T362 -1Q347 -1 340 14T327 58Q274 -6 197 -6Q130 -6 91 34ZM279 73T320 130V259Q264 258 228 251T165 221T139 150Q139 73 214 73Q279 73 320 130ZM206 570T184 593T162 654Q162 693 184 716T243 739Q281 739 303 716T325
654Q325 616 303 593T243 570Q206 570 184 593ZM259 618T268 628T277 655Q277 672 268 682T243 693Q228 693 219 683T210 655Q210 638 219 628T243 618Q259 618 268 628Z" />
<glyph unicode="&#xe6;" glyph-name="ae" horiz-adv-x="688" d="M132 -6T92 34T51 150Q51 247 116 283T289 325Q293 369 307 404Q293 457 231 457Q197 457 172 449T129 432T107 423Q97 423 85 442T73 471Q73 484 95 497T155 520T232 529Q313 529 357 485Q404 529
479 529Q565 529 609 464T653 274Q653 265 641 249T620 233H375Q380 145 406 106T490 66Q526 66 549 76T588 97T607 108Q617 108 629 88T642 58Q642 46 622 31T566 5T491 -6Q390 -6 341 53Q316 25 280 10T200 -6Q132 -6 92 34ZM564 305Q564 457 476 457Q383 457
375 305H564ZM268 73T306 116Q287 167 285 252Q219 249 179 228T139 152Q139 73 209 73Q268 73 306 116Z" />
<glyph unicode="&#xe7;" glyph-name="ccedilla" horiz-adv-x="408" d="M387 29T347 13T266 -6L251 -56Q282 -62 301 -80T320 -129Q320 -175 291 -192T225 -210Q188 -210 159 -200T130 -171Q130 -149 149 -149Q157 -149 172 -154Q201 -163 220 -163Q236 -163 248
-156T261 -128Q261 -113 252 -106T227 -94Q215 -90 209 -87T203 -76Q203 -68 225 -5Q134 4 90 68T46 264Q46 411 100 470T253 529Q299 529 338 515T378 483Q378 471 367 450T347 429Q346 429 336 433Q294 457 255 457Q196 457 167 413T137 266Q137 160 165 113T258
66Q304 66 341 88Q345 90 348 92T354 96Q364 96 375 77T387 45Q387 29 347 13Z" />
<glyph unicode="&#xe8;" glyph-name="egrave" horiz-adv-x="454" d="M150 -6T99 59T47 258Q47 391 97 460T244 529Q331 529 375 463T419 268Q419 259 407 243T386 227H137Q142 142 169 104T255 66Q291 66 315 76T354 97T372 108Q382 108 394 88T407 58Q407 46
387 31T331 5T256 -6Q150 -6 99 59ZM330 299Q330 457 241 457Q145 457 137 299H330ZM234 576T225 580T203 600L159 660L145 678Q143 681 138 689T132 702Q132 711 142 714T175 718Q205 718 218 712T237 692L267 621Q278 595 278 589Q278 576 256 576Q234 576 225
580Z" />
<glyph unicode="&#xe9;" glyph-name="eacute" horiz-adv-x="454" d="M150 -6T99 59T47 258Q47 391 97 460T244 529Q331 529 375 463T419 268Q419 259 407 243T386 227H137Q142 142 169 104T255 66Q291 66 315 76T354 97T372 108Q382 108 394 88T407 58Q407 46
387 31T331 5T256 -6Q150 -6 99 59ZM330 299Q330 457 241 457Q145 457 137 299H330ZM170 576T170 589Q170 595 181 621L211 692Q217 706 230 712T273 718Q296 718 306 715T316 702Q316 697 311 689T303 678L289 660L245 600Q233 584 224 580T192 576Q170 576 170
589Z" />
<glyph unicode="&#xea;" glyph-name="ecircumflex" horiz-adv-x="454" d="M150 -6T99 59T47 258Q47 391 97 460T244 529Q331 529 375 463T419 268Q419 259 407 243T386 227H137Q142 142 169 104T255 66Q291 66 315 76T354 97T372 108Q382 108 394 88T407 58Q407
46 387 31T331 5T256 -6Q150 -6 99 59ZM330 299Q330 457 241 457Q145 457 137 299H330ZM122 576T122 589Q122 595 133 621L163 692Q169 705 180 711T215 718H246Q269 718 280 712T298 692L328 621Q339 595 339 589Q339 576 317 576Q297 576 289 579T269 600L231
656L192 600Q181 583 173 580T144 576Q122 576 122 589Z" />
<glyph unicode="&#xeb;" glyph-name="edieresis" horiz-adv-x="454" d="M150 -6T99 59T47 258Q47 391 97 460T244 529Q331 529 375 463T419 268Q419 259 407 243T386 227H137Q142 142 169 104T255 66Q291 66 315 76T354 97T372 108Q382 108 394 88T407 58Q407
46 387 31T331 5T256 -6Q150 -6 99 59ZM330 299Q330 457 241 457Q145 457 137 299H330ZM138 597T128 602T117 619V675Q117 686 127 691T161 697Q184 697 194 692T205 675V619Q205 608 195 603T161 597Q138 597 128 602ZM278 597T268 602T257 619V675Q257 686 267
691T301 697Q324 697 334 692T345 675V619Q345 608 335 603T301 597Q278 597 268 602Z" />
<glyph unicode="&#xec;" glyph-name="igrave" horiz-adv-x="254" d="M85 -2T85 20V503Q85 525 125 525H129Q169 525 169 503V20Q169 -2 129 -2H125Q85 -2 85 20ZM130 576T121 580T99 600L55 660L41 678Q39 681 34 689T28 702Q28 711 38 714T71 718Q101 718 114
712T133 692L163 621Q174 595 174 589Q174 576 152 576Q130 576 121 580Z" />
<glyph unicode="&#xed;" glyph-name="iacute" horiz-adv-x="254" d="M85 -2T85 20V503Q85 525 125 525H129Q169 525 169 503V20Q169 -2 129 -2H125Q85 -2 85 20ZM66 576T66 589Q66 595 77 621L107 692Q113 706 126 712T169 718Q192 718 202 715T212 702Q212 697
207 689T199 678L185 660L141 600Q129 584 120 580T88 576Q66 576 66 589Z" />
<glyph unicode="&#xee;" glyph-name="icircumflex" horiz-adv-x="254" d="M85 -2T85 20V503Q85 525 125 525H129Q169 525 169 503V20Q169 -2 129 -2H125Q85 -2 85 20ZM18 576T18 589Q18 595 29 621L59 692Q65 705 76 711T111 718H142Q165 718 176 712T194 692L224
621Q235 595 235 589Q235 576 213 576Q193 576 185 579T165 600L127 656L88 600Q77 583 69 580T40 576Q18 576 18 589Z" />
<glyph unicode="&#xef;" glyph-name="idieresis" horiz-adv-x="254" d="M85 -2T85 20V503Q85 525 125 525H129Q169 525 169 503V20Q169 -2 129 -2H125Q85 -2 85 20ZM34 597T24 602T13 619V675Q13 686 23 691T57 697Q80 697 90 692T101 675V619Q101 608 91 603T57
597Q34 597 24 602ZM174 597T164 602T153 619V675Q153 686 163 691T197 697Q220 697 230 692T241 675V619Q241 608 231 603T197 597Q174 597 164 602Z" />
<glyph unicode="&#xf0;" glyph-name="eth" horiz-adv-x="477" d="M379 527T404 441T430 260Q430 130 382 62T240 -6Q146 -6 97 62T47 259Q47 388 97 457T240 526Q269 526 293 519Q278 559 248 607L162 595Q152 595 144 605T136 627Q136 637 151 640L223 650Q212
665 205 678T197 698Q197 709 213 712Q227 714 240 714Q256 714 266 702Q286 678 299 660Q373 671 377 671Q389 671 395 659T402 639Q402 628 387 626L327 618Q379 527 404 441ZM291 66T316 113T342 261Q342 359 317 406T238 454Q185 454 160 407T135 261Q135 161
160 114T238 66Q291 66 316 113Z" />
<glyph unicode="&#xf1;" glyph-name="ntilde" horiz-adv-x="482" d="M78 -2T78 20V373Q78 438 73 467T68 499Q68 511 89 516T126 522Q140 522 145 509T154 479T158 454Q181 489 214 509T284 529Q346 529 380 488T414 373V20Q414 -2 376 -2H366Q327 -2 327 20V365Q327
409 309 432T256 456Q229 456 204 437T164 386V20Q164 -2 126 -2H115Q78 -2 78 20ZM117 599T106 604T94 617Q94 623 97 630Q112 663 135 678T185 693Q211 693 255 673Q289 658 304 658Q321 658 331 665T349 685T361 697Q370 697 382 691T394 679Q394 671 383 649Q370
624 353 613T303 602Q287 602 271 607T229 622Q195 637 181 637Q167 637 158 631T140 612T125 599Q117 599 106 604Z" />
<glyph unicode="&#xf2;" glyph-name="ograve" horiz-adv-x="477" d="M146 -6T97 62T47 259Q47 389 96 459T240 529Q333 529 381 460T430 259Q430 129 382 62T240 -6Q146 -6 97 62ZM291 66T316 113T342 261Q342 361 317 409T238 457Q185 457 161 410T136 261Q136
161 160 114T238 66Q291 66 316 113ZM242 576T233 580T211 600L167 660L153 678Q151 681 146 689T140 702Q140 711 150 714T183 718Q213 718 226 712T245 692L275 621Q286 595 286 589Q286 576 264 576Q242 576 233 580Z" />
<glyph unicode="&#xf3;" glyph-name="oacute" horiz-adv-x="477" d="M146 -6T97 62T47 259Q47 389 96 459T240 529Q333 529 381 460T430 259Q430 129 382 62T240 -6Q146 -6 97 62ZM291 66T316 113T342 261Q342 361 317 409T238 457Q185 457 161 410T136 261Q136
161 160 114T238 66Q291 66 316 113ZM178 576T178 589Q178 595 189 621L219 692Q225 706 238 712T281 718Q304 718 314 715T324 702Q324 697 319 689T311 678L297 660L253 600Q241 584 232 580T200 576Q178 576 178 589Z" />
<glyph unicode="&#xf4;" glyph-name="ocircumflex" horiz-adv-x="477" d="M146 -6T97 62T47 259Q47 389 96 459T240 529Q333 529 381 460T430 259Q430 129 382 62T240 -6Q146 -6 97 62ZM291 66T316 113T342 261Q342 361 317 409T238 457Q185 457 161 410T136 261Q136
161 160 114T238 66Q291 66 316 113ZM130 576T130 589Q130 595 141 621L171 692Q177 705 188 711T223 718H254Q277 718 288 712T306 692L336 621Q347 595 347 589Q347 576 325 576Q305 576 297 579T277 600L239 656L200 600Q189 583 181 580T152 576Q130 576 130
589Z" />
<glyph unicode="&#xf5;" glyph-name="otilde" horiz-adv-x="477" d="M146 -6T97 62T47 259Q47 389 96 459T240 529Q333 529 381 460T430 259Q430 129 382 62T240 -6Q146 -6 97 62ZM291 66T316 113T342 261Q342 361 317 409T238 457Q185 457 161 410T136 261Q136
161 160 114T238 66Q291 66 316 113ZM112 599T101 604T89 617Q89 623 92 630Q107 663 130 678T180 693Q206 693 250 673Q284 658 299 658Q316 658 326 665T344 685T356 697Q365 697 377 691T389 679Q389 671 378 649Q365 624 348 613T298 602Q282 602 266 607T224
622Q190 637 176 637Q162 637 153 631T135 612T120 599Q112 599 101 604Z" />
<glyph unicode="&#xf6;" glyph-name="odieresis" horiz-adv-x="477" d="M146 -6T97 62T47 259Q47 389 96 459T240 529Q333 529 381 460T430 259Q430 129 382 62T240 -6Q146 -6 97 62ZM291 66T316 113T342 261Q342 361 317 409T238 457Q185 457 161 410T136 261Q136
161 160 114T238 66Q291 66 316 113ZM146 597T136 602T125 619V675Q125 686 135 691T169 697Q192 697 202 692T213 675V619Q213 608 203 603T169 597Q146 597 136 602ZM286 597T276 602T265 619V675Q265 686 275 691T309 697Q332 697 342 692T353 675V619Q353 608
343 603T309 597Q286 597 276 602Z" />
<glyph unicode="&#xf7;" glyph-name="divide" horiz-adv-x="448" d="M183 368T183 390V441Q183 463 221 463H226Q264 463 264 441V390Q264 368 226 368H221Q183 368 183 390ZM40 194T35 201T30 224V237Q30 253 35 260T50 267H398Q409 267 413 260T418 237V224Q418
208 414 201T398 194H50Q40 194 35 201ZM183 -2T183 20V71Q183 93 221 93H226Q264 93 264 71V20Q264 -2 226 -2H221Q183 -2 183 20Z" />
<glyph unicode="&#xf8;" glyph-name="oslash" horiz-adv-x="477" d="M430 376T430 259Q430 129 382 62T240 -6Q161 -6 113 42L85 2Q81 -6 72 -6Q65 -6 56 1T46 15Q46 19 52 28L86 78Q47 144 47 259Q47 389 96 459T240 529Q316 529 363 482L389 520Q395 528 402
528Q409 528 418 521T428 507Q428 503 422 494L390 447Q430 376 430 259ZM136 205T144 163L315 412Q290 457 238 457Q185 457 161 410T136 261Q136 205 144 163ZM291 66T316 113T342 261Q342 322 333 364L161 113Q185 66 238 66Q291 66 316 113Z" />
<glyph unicode="&#xf9;" glyph-name="ugrave" horiz-adv-x="482" d="M136 -7T102 31T68 138V502Q68 524 106 524H116Q154 524 154 502V151Q154 110 172 88T225 66Q253 66 277 85T318 136V502Q318 524 356 524H366Q404 524 404 502V149Q404 84 409 55T414 22Q414
10 393 5T356 0Q342 0 337 13T328 43T324 68Q301 33 268 13T198 -7Q136 -7 102 31ZM242 576T233 580T211 600L167 660L153 678Q151 681 146 689T140 702Q140 711 150 714T183 718Q213 718 226 712T245 692L275 621Q286 595 286 589Q286 576 264 576Q242 576 233
580Z" />
<glyph unicode="&#xfa;" glyph-name="uacute" horiz-adv-x="482" d="M136 -7T102 31T68 138V502Q68 524 106 524H116Q154 524 154 502V151Q154 110 172 88T225 66Q253 66 277 85T318 136V502Q318 524 356 524H366Q404 524 404 502V149Q404 84 409 55T414 22Q414
10 393 5T356 0Q342 0 337 13T328 43T324 68Q301 33 268 13T198 -7Q136 -7 102 31ZM178 576T178 589Q178 595 189 621L219 692Q225 706 238 712T281 718Q304 718 314 715T324 702Q324 697 319 689T311 678L297 660L253 600Q241 584 232 580T200 576Q178 576 178
589Z" />
<glyph unicode="&#xfb;" glyph-name="ucircumflex" horiz-adv-x="482" d="M136 -7T102 31T68 138V502Q68 524 106 524H116Q154 524 154 502V151Q154 110 172 88T225 66Q253 66 277 85T318 136V502Q318 524 356 524H366Q404 524 404 502V149Q404 84 409 55T414
22Q414 10 393 5T356 0Q342 0 337 13T328 43T324 68Q301 33 268 13T198 -7Q136 -7 102 31ZM130 576T130 589Q130 595 141 621L171 692Q177 705 188 711T223 718H254Q277 718 288 712T306 692L336 621Q347 595 347 589Q347 576 325 576Q305 576 297 579T277 600L239
656L200 600Q189 583 181 580T152 576Q130 576 130 589Z" />
<glyph unicode="&#xfc;" glyph-name="udieresis" horiz-adv-x="482" d="M136 -7T102 31T68 138V502Q68 524 106 524H116Q154 524 154 502V151Q154 110 172 88T225 66Q253 66 277 85T318 136V502Q318 524 356 524H366Q404 524 404 502V149Q404 84 409 55T414 22Q414
10 393 5T356 0Q342 0 337 13T328 43T324 68Q301 33 268 13T198 -7Q136 -7 102 31ZM146 597T136 602T125 619V675Q125 686 135 691T169 697Q192 697 202 692T213 675V619Q213 608 203 603T169 597Q146 597 136 602ZM286 597T276 602T265 619V675Q265 686 275 691T309
697Q332 697 342 692T353 675V619Q353 608 343 603T309 597Q286 597 276 602Z" />
<glyph unicode="&#xfd;" glyph-name="yacute" horiz-adv-x="399" d="M385 525T385 508Q385 503 381 490L185 -187Q178 -208 145 -208H124Q92 -208 92 -192Q92 -188 96 -175L164 44L23 490Q19 502 19 508Q19 525 58 525H72Q104 525 108 509L182 238Q187 219 201
158H207L225 238L298 509Q302 525 335 525H347Q385 525 385 508ZM141 576T141 589Q141 595 152 621L182 692Q188 706 201 712T244 718Q267 718 277 715T287 702Q287 697 282 689T274 678L260 660L216 600Q204 584 195 580T163 576Q141 576 141 589Z" />
<glyph unicode="&#xfe;" glyph-name="thorn" horiz-adv-x="483" d="M78 -208T78 -186V730Q78 752 118 752H124Q164 752 164 730V464Q187 496 216 512T277 529Q324 529 360 495T415 400T435 258Q435 134 390 64T270 -6Q235 -6 211 7T164 45V-186Q164 -208 127 -208H116Q78
-208 78 -186ZM346 68T346 258Q346 352 324 404T257 456Q232 456 208 438T164 387V113Q199 68 249 68Q346 68 346 258Z" />
<glyph unicode="&#xff;" glyph-name="ydieresis" horiz-adv-x="399" d="M385 525T385 508Q385 503 381 490L185 -187Q178 -208 145 -208H124Q92 -208 92 -192Q92 -188 96 -175L164 44L23 490Q19 502 19 508Q19 525 58 525H72Q104 525 108 509L182 238Q187 219
201 158H207L225 238L298 509Q302 525 335 525H347Q385 525 385 508ZM109 597T99 602T88 619V675Q88 686 98 691T132 697Q155 697 165 692T176 675V619Q176 608 166 603T132 597Q109 597 99 602ZM249 597T239 602T228 619V675Q228 686 238 691T272 697Q295 697
305 692T316 675V619Q316 608 306 603T272 597Q249 597 239 602Z" />
<glyph unicode="&#x2013;" glyph-name="endash" horiz-adv-x="443" d="M40 230T40 260V270Q40 300 59 300H384Q403 300 403 270V260Q403 230 384 230H59Q40 230 40 260Z" />
<glyph unicode="&#x2014;" glyph-name="emdash" horiz-adv-x="886" d="M50 230T50 260V270Q50 300 69 300H817Q836 300 836 270V260Q836 230 817 230H69Q50 230 50 260Z" />
<glyph unicode="&#x2018;" glyph-name="quoteleft" horiz-adv-x="210" d="M73 515T63 522T52 543Q52 599 70 643T112 713T155 739Q166 739 175 736T184 724Q184 718 175 700Q141 635 141 547Q141 532 131 524T101 515H92Q73 515 63 522Z" />
<glyph unicode="&#x2019;" glyph-name="quoteright" horiz-adv-x="210" d="M56 530T47 533T38 545Q38 551 47 569Q81 637 81 722Q81 737 91 745T121 754H130Q149 754 159 747T170 726Q170 670 152 626T110 556T67 530Q56 530 47 533Z" />
<glyph unicode="&#x201a;" glyph-name="quotesinglbase" horiz-adv-x="210" d="M56 -116T47 -113T38 -101Q38 -95 47 -77Q81 -9 81 76Q81 91 91 99T121 108H130Q149 108 159 101T170 80Q170 24 152 -20T110 -90T67 -116Q56 -116 47 -113Z" />
<glyph unicode="&#x201c;" glyph-name="quotedblleft" horiz-adv-x="348" d="M204 515T194 522T183 543Q183 599 201 643T243 713T286 739Q297 739 306 736T315 724Q315 718 306 700Q272 635 272 547Q272 532 262 524T232 515H223Q204 515 194 522ZM319 515T309
522T298 543Q298 599 316 643T358 713T401 739Q412 739 421 736T430 724Q430 718 421 700Q387 635 387 547Q387 532 377 524T347 515H338Q319 515 309 522Z" />
<glyph unicode="&#x201d;" glyph-name="quotedblright" horiz-adv-x="348" d="M198 530T189 533T180 545Q180 551 189 569Q223 637 223 722Q223 737 233 745T263 754H272Q291 754 301 747T312 726Q312 670 294 626T252 556T209 530Q198 530 189 533ZM57 530T48
533T39 545Q39 551 48 569Q82 637 82 722Q82 737 92 745T122 754H131Q150 754 160 747T171 726Q171 670 153 626T111 556T68 530Q57 530 48 533Z" />
<glyph unicode="&#x201e;" glyph-name="quotedblbase" horiz-adv-x="348" d="M198 -116T189 -113T180 -101Q180 -95 189 -77Q223 -9 223 76Q223 91 233 99T263 108H272Q291 108 301 101T312 80Q312 24 294 -20T252 -90T209 -116Q198 -116 189 -113ZM57 -116T48
-113T39 -101Q39 -95 48 -77Q82 -9 82 76Q82 91 92 99T122 108H131Q150 108 160 101T171 80Q171 24 153 -20T111 -90T68 -116Q57 -116 48 -113Z" />
<glyph unicode="&#x2022;" glyph-name="bullet" horiz-adv-x="298" d="M98 203T66 234T33 326Q33 386 65 418T148 450Q198 450 230 418T263 326Q263 266 231 235T148 203Q98 203 66 234Z" />
<glyph unicode="&#x2039;" glyph-name="guilsinglleft" horiz-adv-x="247" d="M154 62T146 74L43 230Q32 247 32 258Q32 269 43 286L146 442Q154 454 166 454Q177 454 191 445T205 424Q205 416 198 404L106 258L198 111Q205 101 205 92Q205 81 191 72T166 62Q154
62 146 74Z" />
<glyph unicode="&#x203a;" glyph-name="guilsinglright" horiz-adv-x="247" d="M65 62T51 71T36 92Q36 101 43 111L136 258L43 404Q36 416 36 424Q36 436 50 445T76 454Q87 454 95 442L198 286Q209 269 209 258Q209 247 198 230L95 74Q87 62 76 62Q65 62 51 71Z" />
</font>
</defs>
</svg>
